<?xml version="1.0" standalone="no"?>
<!DOCTYPE svg PUBLIC "-//W3C//DTD SVG 1.1//EN" "http://www.w3.org/Graphics/SVG/1.1/DTD/svg11.dtd" >
<svg xmlns="http://www.w3.org/2000/svg" xmlns:xlink="http://www.w3.org/1999/xlink" version="1.1">
<metadata>
Created by FontForge 20170731 at Mon Sep 27 10:42:09 2021
 By Aleksey,,,
Copyright 2020 The Open Sans Project Authors (https://github.com/googlefonts/opensans)
</metadata>
<defs>
<font id="OpenSansCondensed-SemiBold" horiz-adv-x="0" >
  <font-face 
    font-family="Open Sans Condensed SemiBold"
    font-weight="600"
    font-stretch="condensed"
    units-per-em="2048"
    panose-1="0 0 0 0 0 0 0 0 0 0"
    ascent="1638"
    descent="-410"
    x-height="1109"
    cap-height="1462"
    bbox="-1096 -598 1999 2186"
    underline-thickness="50"
    underline-position="-175"
    unicode-range="U+000D-FFFD"
  />
<missing-glyph horiz-adv-x="1229" 
 />
    <glyph glyph-name="f_f" unicode="ff" horiz-adv-x="1119" 
d="M536 934h-177v-934h-210v934h-132v113l132 65v54q0 134 25.5 223t84.5 133.5t158 44.5q51 0 93.5 -9t94.5 -29l-49 -163q-28 10 -52.5 15.5t-49.5 5.5q-53 0 -73.5 -46t-21.5 -163v-69h177v-175zM1096 934h-177v-934h-210v934h-132v113l132 65v54q0 134 25.5 223
t84.5 133.5t158 44.5q51 0 93.5 -9t94.5 -29l-49 -163q-28 10 -52.5 15.5t-49.5 5.5q-53 0 -73.5 -46t-21.5 -163v-69h177v-175z" />
    <glyph glyph-name="fi" unicode="fi" horiz-adv-x="1020" 
d="M536 934h-177v-934h-210v934h-132v113l132 65v54q0 134 25.5 223t84.5 133.5t158 44.5q51 0 93.5 -9t94.5 -29l-49 -163q-28 10 -52.5 15.5t-49.5 5.5q-53 0 -73.5 -46t-21.5 -163v-69h177v-175zM895 1109v-1109h-209v1109h209zM792 1536q61 0 89 -35t28 -99
q0 -62 -29.5 -96.5t-87.5 -34.5q-57 0 -88.5 34.5t-31.5 96.5q0 66 30 100t90 34z" />
    <glyph glyph-name="fl" unicode="fl" horiz-adv-x="1017" 
d="M536 934h-177v-934h-210v934h-132v113l132 65v54q0 134 25.5 223t84.5 133.5t158 44.5q51 0 93.5 -9t94.5 -29l-49 -163q-28 10 -52.5 15.5t-49.5 5.5q-53 0 -73.5 -46t-21.5 -163v-69h177v-175zM894 0h-210v1556h210v-1556z" />
    <glyph glyph-name="f_f_i" unicode="ffi" horiz-adv-x="1579" 
d="M536 934h-177v-934h-210v934h-132v113l132 65v54q0 134 25.5 223t84.5 133.5t158 44.5q51 0 93.5 -9t94.5 -29l-49 -163q-28 10 -52.5 15.5t-49.5 5.5q-53 0 -73.5 -46t-21.5 -163v-69h177v-175zM1095 934h-177v-934h-210v934h-132v113l132 65v54q0 134 25.5 223
t84.5 133.5t158 44.5q51 0 93.5 -9t94.5 -29l-49 -163q-28 10 -52.5 15.5t-49.5 5.5q-53 0 -73.5 -46t-21.5 -163v-69h177v-175zM1453 1109v-1109h-209v1109h209zM1350 1536q61 0 89 -35t28 -99q0 -62 -29.5 -96.5t-87.5 -34.5q-57 0 -88.5 34.5t-31.5 96.5q0 66 30 100
t90 34z" />
    <glyph glyph-name="f_f_l" unicode="ffl" horiz-adv-x="1575" 
d="M536 934h-177v-934h-210v934h-132v113l132 65v54q0 134 25.5 223t84.5 133.5t158 44.5q51 0 93.5 -9t94.5 -29l-49 -163q-28 10 -52.5 15.5t-49.5 5.5q-53 0 -73.5 -46t-21.5 -163v-69h177v-175zM1095 934h-177v-934h-210v934h-132v113l132 65v54q0 134 25.5 223
t84.5 133.5t158 44.5q51 0 93.5 -9t94.5 -29l-49 -163q-28 10 -52.5 15.5t-49.5 5.5q-53 0 -73.5 -46t-21.5 -163v-69h177v-175zM1452 0h-210v1556h210v-1556z" />
    <glyph glyph-name=".notdef" horiz-adv-x="1229" 
 />
    <glyph glyph-name=".null" 
 />
    <glyph glyph-name="nonmarkingreturn" horiz-adv-x="682" 
 />
    <glyph glyph-name="NULL" 
 />
    <glyph glyph-name="NULL" 
 />
    <glyph glyph-name="CR" unicode="&#xd;" horiz-adv-x="374" 
 />
    <glyph glyph-name="space" unicode=" " horiz-adv-x="374" 
 />
    <glyph glyph-name="exclam" unicode="!" horiz-adv-x="499" 
d="M335 440h-170l-41 1022h249zM119 126q0 72 33 109.5t99 37.5q61 0 95.5 -36t34.5 -111q0 -72 -36 -109t-94 -37q-63 0 -97.5 37.5t-34.5 108.5z" />
    <glyph glyph-name="quotedbl" unicode="&#x22;" horiz-adv-x="832" 
d="M343 1462l-34 -528h-166l-35 528h235zM726 1462l-35 -528h-165l-36 528h236z" />
    <glyph glyph-name="numbersign" unicode="#" horiz-adv-x="992" 
d="M767 897l-39 -307h182v-160h-201l-56 -430h-159l56 430h-183l-54 -430h-155l53 430h-171v160h192l38 307h-183v160h204l52 405h158l-53 -405h183l53 405h155l-53 -405h172v-160h-191zM389 590h182l40 307h-183z" />
    <glyph glyph-name="dollar" unicode="$" horiz-adv-x="916" 
d="M404 -119v211q-88 2 -169.5 22t-145.5 51v196q63 -39 147 -69t168 -32v413q-110 44 -181 95.5t-105 119.5t-34 162q0 100 40.5 173.5t113 118t166.5 54.5v159h112v-156q77 -4 149.5 -23.5t139.5 -54.5l-53 -164q-55 30 -113.5 46.5t-122.5 21.5v-406q108 -43 178.5 -91.5
t105 -113t34.5 -156.5q0 -140 -83 -236.5t-235 -122.5v-218h-112zM516 271q72 17 108 63.5t36 109.5q0 44 -15.5 76t-47 57.5t-81.5 48.5v-355zM404 867v356q-47 -8 -78.5 -31.5t-47.5 -59.5t-16 -83q0 -45 14.5 -76.5t45.5 -56t82 -49.5z" />
    <glyph glyph-name="percent" unicode="%" horiz-adv-x="1459" 
d="M333 1483q124 0 194 -119.5t70 -337.5q0 -220 -68.5 -340.5t-195.5 -120.5q-124 0 -192.5 122.5t-68.5 338.5q0 221 67.5 339t193.5 118zM333 1332q-48 0 -70 -76t-22 -231t22.5 -231.5t71.5 -76.5t71 75.5t22 232.5q0 156 -23.5 231.5t-71.5 75.5zM1078 1462l-537 -1462
h-164l537 1462h164zM1124 899q124 0 194 -119.5t70 -337.5q0 -222 -69 -341t-195 -119q-124 0 -192.5 122.5t-68.5 337.5q0 225 67.5 341t193.5 116zM1123 749q-48 0 -70 -76.5t-22 -231.5t22 -231t72 -76t71 79.5t21 227.5t-22.5 228t-71.5 80z" />
    <glyph glyph-name="ampersand" unicode="&#x26;" horiz-adv-x="1070" 
d="M462 1482q91 0 154.5 -38t97 -109t33.5 -171q0 -121 -49.5 -216.5t-144.5 -176.5l189 -302q24 51 39 117t20 144h219q-11 -110 -47.5 -230.5t-93.5 -216.5l197 -283h-261l-81 133q-46 -48 -96.5 -82t-110 -52.5t-132.5 -18.5q-113 0 -188.5 51t-113 141.5t-37.5 207.5
q0 88 25 161.5t76.5 137t132.5 119.5q-42 64 -68.5 121t-39 117.5t-12.5 131.5q0 96 36 166.5t101.5 109t154.5 38.5zM389 662q-42 -38 -68 -78.5t-37.5 -87t-11.5 -105.5q0 -99 42 -159.5t113 -60.5q60 0 106 31t88 92zM459 1320q-41 0 -65 -39t-24 -115q0 -61 21 -131
t59 -126q55 49 78.5 116.5t23.5 144.5q0 75 -24.5 112.5t-68.5 37.5z" />
    <glyph glyph-name="quotesingle" unicode="'" horiz-adv-x="449" 
d="M343 1462l-34 -528h-166l-35 528h235z" />
    <glyph glyph-name="parenleft" unicode="(" horiz-adv-x="615" 
d="M96 571q0 180 34.5 343.5t99 307.5t152.5 261h189q-133 -199 -200.5 -428.5t-67.5 -480.5q0 -165 31 -321t90.5 -300.5t144.5 -276.5h-187q-91 117 -154.5 257t-97.5 300.5t-34 337.5z" />
    <glyph glyph-name="parenright" unicode=")" horiz-adv-x="615" 
d="M519 572q0 -176 -34 -337t-98 -302t-155 -257h-187q86 133 145.5 278t90.5 301t31 319q0 170 -30.5 328t-89.5 303.5t-147 277.5h187q90 -117 154 -261t98.5 -308.5t34.5 -341.5z" />
    <glyph glyph-name="asterisk" unicode="*" horiz-adv-x="856" 
d="M532 1560l-33 -278l254 86l42 -192l-254 -27l186 -226l-168 -108l-130 253l-135 -254l-164 109l182 226l-252 25l42 192l255 -84l-30 278h205z" />
    <glyph glyph-name="plus" unicode="+" horiz-adv-x="922" 
d="M549 810h306v-174h-306v-397h-176v397h-308v174h308v400h176v-400z" />
    <glyph glyph-name="comma" unicode="," horiz-adv-x="487" 
d="M373 251l12 -22q-18 -92 -40 -179.5t-48 -168.5t-58 -155h-168q20 82 38 175.5t31 185t19 164.5h214z" />
    <glyph glyph-name="hyphen" unicode="-" horiz-adv-x="592" 
d="M56 449v205h480v-205h-480z" />
    <glyph glyph-name="period" unicode="." horiz-adv-x="488" 
d="M113 126q0 72 34 109.5t98 37.5q62 0 96.5 -36t34.5 -111q0 -72 -35.5 -109t-95.5 -37q-61 0 -96.5 37.5t-35.5 108.5z" />
    <glyph glyph-name="slash" unicode="/" horiz-adv-x="789" 
d="M768 1472l-546 -1481h-193l549 1481h190z" />
    <glyph glyph-name="zero" unicode="0" horiz-adv-x="916" 
d="M834 731q0 -171 -19.5 -309t-63.5 -237t-116.5 -151.5t-177.5 -52.5q-121 0 -205 72.5t-127.5 237t-43.5 440.5q0 254 41 420.5t124.5 249t210.5 82.5q128 0 211 -84t124.5 -251t41.5 -417zM299 731q0 -187 15.5 -310.5t50 -185t92.5 -61.5q59 0 93.5 61.5t50 185.5
t15.5 310q0 184 -15.5 308t-50 187t-93.5 63q-57 0 -92 -62t-50.5 -186t-15.5 -310z" />
    <glyph glyph-name="one" unicode="1" horiz-adv-x="916" 
d="M662 0h-216v929q0 45 0.5 89.5t2.5 89.5t4 89q-14 -19 -34.5 -43t-49.5 -55l-129 -128l-127 130l359 361h190v-1462z" />
    <glyph glyph-name="two" unicode="2" horiz-adv-x="916" 
d="M815 0h-750v158l285 409q87 125 135.5 211.5t67.5 159t19 153.5q0 92 -44 146t-128 54q-61 0 -112.5 -26.5t-110.5 -91.5l-108 146q55 59 109.5 95.5t114 52.5t129.5 16q112 0 195 -47.5t128 -133t45 -199.5q0 -107 -25 -200t-80 -188.5t-144 -212.5l-219 -301v-8h493
v-193z" />
    <glyph glyph-name="three" unicode="3" horiz-adv-x="916" 
d="M795 1120q0 -84 -28 -153t-82.5 -119.5t-133.5 -79.5v-7q132 -28 201 -119.5t69 -236.5q0 -128 -51 -223.5t-147 -148.5t-232 -53q-92 0 -166.5 14.5t-150.5 49.5v208q69 -41 143 -62.5t146 -21.5q119 0 175.5 67t56.5 180q0 83 -31.5 137.5t-95 81.5t-160.5 27h-74v184
h78q85 0 145.5 31t92 87.5t31.5 132.5q0 96 -47 147.5t-136 51.5q-44 0 -83 -11.5t-76 -34t-76 -55.5l-93 155q84 73 170 103.5t195 30.5q167 0 263.5 -95.5t96.5 -267.5z" />
    <glyph glyph-name="four" unicode="4" horiz-adv-x="916" 
d="M890 310h-152v-310h-213v310h-490v175l483 985h220v-979h152v-181zM524 491v464q0 19 1 49.5t2 64t2 62t2 44.5h-8q-14 -46 -31.5 -88t-35.5 -81l-239 -515h307z" />
    <glyph glyph-name="five" unicode="5" horiz-adv-x="916" 
d="M471 916q109 0 188.5 -55.5t122.5 -155t43 -230.5q0 -151 -49.5 -262t-147.5 -172t-245 -61q-86 0 -156.5 16.5t-126.5 48.5v207q61 -37 131 -60.5t137 -23.5q80 0 132.5 39.5t78.5 107.5t26 153q0 129 -58.5 196.5t-170.5 67.5q-45 0 -91 -9t-92 -25l-78 65l44 699h590
v-193h-409l-25 -372q43 11 82.5 15t73.5 4z" />
    <glyph glyph-name="six" unicode="6" horiz-adv-x="916" 
d="M84 622q0 155 17 287.5t53.5 238.5t96.5 181t145.5 114.5t199.5 39.5q46 0 89 -5t81 -16v-188q-35 10 -74 15.5t-82 5.5q-101 0 -171 -57.5t-107.5 -174t-42.5 -292.5h8q22 52 55 89.5t77.5 58t98.5 20.5q103 0 171.5 -60t104 -165t35.5 -241q0 -144 -42 -255.5
t-123.5 -174.5t-200.5 -63q-93 0 -165.5 42.5t-122.5 124.5t-75.5 201.5t-25.5 273.5zM468 170q73 0 114 74t41 225q0 139 -38 210.5t-115 71.5q-53 0 -90.5 -32t-56.5 -84.5t-19 -116.5q0 -59 9 -120t28.5 -112.5t51 -83.5t75.5 -32z" />
    <glyph glyph-name="seven" unicode="7" horiz-adv-x="916" 
d="M185 0l435 1268h-552v194h773v-154l-427 -1308h-229z" />
    <glyph glyph-name="eight" unicode="8" horiz-adv-x="916" 
d="M460 1483q112 0 191.5 -42t121.5 -119t42 -184q0 -80 -24 -147.5t-73 -123t-124 -100.5q81 -55 138 -113t87 -126t30 -153q0 -119 -47 -208t-134 -138t-205 -49q-126 0 -215 47t-135 134t-46 206q0 85 25.5 156t78 130.5t132.5 110.5q-68 53 -112.5 111.5t-66 123.5
t-21.5 138q0 107 43.5 184.5t124 119.5t189.5 42zM277 369q0 -94 46.5 -153t133.5 -59q91 0 136.5 59.5t45.5 157.5q0 46 -15.5 90t-50 86.5t-92.5 85.5l-35 25q-60 -41 -97.5 -84.5t-54.5 -94t-17 -113.5zM458 1306q-67 0 -107.5 -49.5t-40.5 -134.5q0 -53 16.5 -96.5
t49 -80.5t81.5 -72q54 37 87.5 75t48.5 80.5t15 93.5q0 85 -40 134.5t-110 49.5z" />
    <glyph glyph-name="nine" unicode="9" horiz-adv-x="916" 
d="M827 851q0 -159 -18 -293.5t-56.5 -241.5t-99.5 -181.5t-145.5 -114.5t-195.5 -40q-42 0 -89.5 6t-83.5 15v190q35 -12 75 -18t85 -6q113 0 182.5 69t103.5 187.5t38 267.5h-9q-22 -51 -55 -89t-77 -58.5t-99 -20.5q-103 0 -172.5 60t-103.5 165.5t-34 240.5
q0 144 42 255.5t124.5 175t205.5 63.5q92 0 163 -42t120 -123t74 -198.5t25 -268.5zM446 1292q-75 0 -116.5 -74t-41.5 -224q0 -139 38.5 -211t115.5 -72q58 0 94.5 36t54 92t17.5 115q0 44 -6.5 101.5t-23.5 111.5t-49 89.5t-83 35.5z" />
    <glyph glyph-name="colon" unicode=":" horiz-adv-x="494" 
d="M117 127q0 71 33 108.5t98 37.5q62 0 95.5 -36t33.5 -110q0 -73 -35 -110t-94 -37q-63 0 -97 38t-34 109zM117 971q0 72 33 110t98 38q64 0 96.5 -38t32.5 -109q0 -73 -35 -110.5t-94 -37.5q-63 0 -97 38.5t-34 108.5z" />
    <glyph glyph-name="semicolon" unicode=";" horiz-adv-x="494" 
d="M373 251l12 -22q-17 -92 -39.5 -179.5t-49 -168.5t-57.5 -155h-169q21 85 38.5 178t30.5 182.5t20 164.5h214zM117 972q0 71 33.5 109t98.5 38q63 0 96 -38t33 -109q0 -73 -35.5 -110.5t-93.5 -37.5q-63 0 -97.5 38.5t-34.5 109.5z" />
    <glyph glyph-name="less" unicode="&#x3c;" horiz-adv-x="922" 
d="M857 260l-798 415v117l798 410v-197l-554 -272l554 -278v-195z" />
    <glyph glyph-name="equal" unicode="=" horiz-adv-x="922" 
d="M65 857v174h790v-174h-790zM65 412v174h790v-174h-790z" />
    <glyph glyph-name="greater" unicode="&#x3e;" horiz-adv-x="922" 
d="M64 455l554 277l-554 273v197l797 -410v-117l-797 -415v195z" />
    <glyph glyph-name="question" unicode="?" horiz-adv-x="698" 
d="M206 440v67q0 70 11 124t36.5 102.5t69.5 99.5q46 55 74.5 100t41 89.5t12.5 98.5q0 86 -37.5 129t-106.5 43q-56 0 -107 -21.5t-107 -60.5l-75 165q74 54 149.5 80.5t153.5 26.5q165 0 251.5 -90t86.5 -254q0 -88 -19 -153.5t-57.5 -123.5t-97.5 -126q-45 -52 -68 -90.5
t-31 -75.5t-8 -86v-44h-172zM163 126q0 72 33.5 109.5t97.5 37.5q62 0 96 -36t34 -110q0 -73 -35 -110t-95 -37q-61 0 -96 37.5t-35 108.5z" />
    <glyph glyph-name="at" unicode="@" horiz-adv-x="1401" 
d="M1314 743q0 -119 -19.5 -213.5t-55.5 -161t-87 -101.5t-114 -35q-81 0 -126 45.5t-59 128.5h-11q-28 -89 -73.5 -131.5t-109.5 -42.5q-116 0 -179 100t-63 281q0 148 39 254t113.5 162.5t178.5 56.5q55 0 114 -11.5t110 -32.5l-16 -423q-1 -30 -2.5 -62t-1.5 -54
q0 -67 21 -98t59 -31q39 0 66 38t41 120.5t14 214.5q0 175 -50 308.5t-144 208.5t-227 74q-125 0 -215.5 -61t-149.5 -165t-87.5 -234.5t-28.5 -270.5q0 -183 48.5 -326.5t147.5 -226t251 -82.5q83 0 169 23t156 59v-149q-72 -36 -151 -54.5t-174 -18.5q-195 0 -330.5 90.5
t-206 261t-70.5 412.5q0 202 46 365t131 279t203 177t261 60q181 0 311.5 -96.5t200.5 -262t70 -375.5zM584 610q0 -119 25.5 -177.5t72.5 -58.5t72 75.5t35 253.5l12 240q-13 5 -28 7t-32 2q-48 0 -83.5 -40t-54.5 -116t-19 -186z" />
    <glyph glyph-name="A" unicode="A" horiz-adv-x="992" 
d="M758 0l-93 411h-336l-93 -411h-236l354 1462h278l360 -1462h-234zM628 607l-95 441q-8 43 -15 83.5t-13 78.5t-11 73q-3 -34 -8.5 -72t-13 -78t-16.5 -82l-93 -444h265z" />
    <glyph glyph-name="B" unicode="B" horiz-adv-x="1023" 
d="M141 1462h352q209 0 314 -87.5t105 -267.5q0 -90 -23.5 -159t-69 -113t-110.5 -60v-9q80 -20 131 -65t75.5 -114.5t24.5 -165.5q0 -128 -47 -222.5t-137 -146.5t-217 -52h-398v1462zM361 851h131q102 0 150 58t48 172q0 97 -50 148t-151 51h-128v-429zM361 672v-484h158
q97 0 146.5 61.5t49.5 186.5q0 78 -25 130t-72 79t-114 27h-143z" />
    <glyph glyph-name="C" unicode="C" horiz-adv-x="948" 
d="M615 1291q-76 0 -131 -43.5t-90.5 -121t-52.5 -179.5t-17 -218q0 -175 36 -299.5t104 -190t163 -65.5q65 0 123 19.5t111 46.5v-197q-56 -31 -121.5 -47t-142.5 -16q-157 0 -269 89t-172 257t-60 405q0 160 32 296.5t95.5 239.5t158.5 160t220 57q80 0 154 -20t143 -61
l-69 -183q-50 33 -103 52t-112 19z" />
    <glyph glyph-name="D" unicode="D" horiz-adv-x="1096" 
d="M1001 754q0 -246 -62 -414t-183 -254t-299 -86h-316v1462h332q172 0 289.5 -81t178 -239t60.5 -388zM774 743q0 178 -34 295t-102 174.5t-170 57.5h-107v-1075h92q166 0 243.5 136.5t77.5 411.5z" />
    <glyph glyph-name="E" unicode="E" horiz-adv-x="846" 
d="M757 0h-616v1462h616v-190h-396v-415h371v-191h-371v-471h396v-195z" />
    <glyph glyph-name="F" unicode="F" horiz-adv-x="810" 
d="M361 0h-220v1462h614v-190h-394v-472h370v-192h-370v-608z" />
    <glyph glyph-name="G" unicode="G" horiz-adv-x="1143" 
d="M622 795h414v-739q-97 -38 -199 -57t-207 -19q-180 0 -298.5 95.5t-177 265.5t-58.5 394t65 392t193 262t317 94q98 0 185.5 -24.5t160.5 -68.5l-69 -183q-66 42 -133 63t-137 21q-116 0 -194.5 -65.5t-118.5 -190.5t-40 -306q0 -163 33.5 -288.5t104 -196t182.5 -70.5
q49 0 93.5 7t82.5 21v403h-199v190z" />
    <glyph glyph-name="H" unicode="H" horiz-adv-x="1134" 
d="M994 0h-220v666h-413v-666h-220v1462h220v-602h413v602h220v-1462z" />
    <glyph glyph-name="I" unicode="I" horiz-adv-x="501" 
d="M141 0v1462h220v-1462h-220z" />
    <glyph glyph-name="J" unicode="J" horiz-adv-x="496" 
d="M37 -412q-39 0 -75.5 5t-68.5 17v191q25 -9 53.5 -15t60.5 -6q48 0 77 24.5t42.5 80.5t13.5 150v1427h219v-1432q0 -164 -37 -261t-109 -139t-176 -42z" />
    <glyph glyph-name="K" unicode="K" horiz-adv-x="974" 
d="M985 0h-245l-281 641l-98 -106v-535h-220v1462h220v-708q11 34 36.5 84.5t63.5 119.5l275 504h237l-361 -648z" />
    <glyph glyph-name="L" unicode="L" horiz-adv-x="792" 
d="M141 0v1462h220v-1267h399v-195h-619z" />
    <glyph glyph-name="M" unicode="M" horiz-adv-x="1518" 
d="M665 0l-322 1161h-8q5 -67 7.5 -123.5t4 -101t1.5 -76.5v-860h-207v1462h306l310 -1108h6l310 1108h307v-1462h-212v859q0 36 1 80.5t3.5 99.5l5.5 121h-7l-323 -1160h-183z" />
    <glyph glyph-name="N" unicode="N" horiz-adv-x="1212" 
d="M1073 0h-262l-469 1115h-8q5 -62 8 -118t4.5 -105t1.5 -92v-800h-207v1462h260l469 -1094h7q-4 64 -6.5 119.5t-4 104t-1.5 88.5v782h208v-1462z" />
    <glyph glyph-name="O" unicode="O" horiz-adv-x="1166" 
d="M1071 733q0 -165 -28.5 -303t-87 -239t-151 -156t-219.5 -55q-129 0 -222 56t-152 157.5t-87 239.5t-28 302q0 248 55 414.5t164 250.5t270 84q170 0 277.5 -95t158 -264.5t50.5 -391.5zM324 733q0 -183 29.5 -307t87.5 -187t143 -63q86 0 143 61.5t86 185t29 310.5
q0 279 -64.5 418t-192.5 139q-87 0 -145 -63t-87 -186.5t-29 -307.5z" />
    <glyph glyph-name="P" unicode="P" horiz-adv-x="950" 
d="M458 1462q219 0 324.5 -109.5t105.5 -330.5q0 -112 -27 -200t-81.5 -149.5t-136.5 -93.5t-194 -32h-88v-547h-220v1462h317zM444 1273h-83v-536h67q82 0 135 28.5t78.5 91t25.5 163.5q0 134 -54.5 193.5t-168.5 59.5z" />
    <glyph glyph-name="Q" unicode="Q" horiz-adv-x="1166" 
d="M1071 733q0 -182 -30.5 -321t-90 -233.5t-145.5 -143.5l229 -383h-254l-179 331q-6 0 -15.5 -1t-17.5 -1q-125 0 -214.5 58t-146.5 161t-84 240t-27 295q0 248 55 414.5t164 250.5t270 84q158 0 266 -84t164 -251t56 -416zM324 733q0 -183 29.5 -307t87.5 -187t143 -63
q86 0 143 61.5t86 185t29 310.5q0 280 -64.5 418.5t-192.5 138.5q-87 0 -145 -63t-87 -187t-29 -307z" />
    <glyph glyph-name="R" unicode="R" horiz-adv-x="990" 
d="M436 1462q155 0 256.5 -45.5t151.5 -138t50 -232.5q0 -94 -23 -169t-71.5 -131.5t-124.5 -95.5l299 -650h-243l-251 595h-119v-595h-220v1462h295zM436 1272h-75v-499h89q106 0 162.5 65.5t56.5 196.5q0 124 -56.5 180.5t-176.5 56.5z" />
    <glyph glyph-name="S" unicode="S" horiz-adv-x="869" 
d="M799 414q0 -128 -50 -226t-141 -153t-215 -55q-59 0 -114 7t-106 23t-100 41v226q74 -45 156.5 -68.5t153.5 -23.5q63 0 106 27.5t65 74.5t22 105q0 61 -18.5 104.5t-65 82t-129.5 84.5q-64 37 -116 75.5t-88.5 86t-56 111t-19.5 150.5q-2 119 46.5 209t137.5 139.5
t209 48.5q86 0 166.5 -22t147.5 -59l-64 -197q-66 38 -127.5 56.5t-115.5 18.5q-58 0 -98 -23.5t-61 -65t-21 -95.5q0 -64 19.5 -107t67 -80t130.5 -83q93 -52 155 -110.5t93 -131.5t31 -170z" />
    <glyph glyph-name="T" unicode="T" horiz-adv-x="825" 
d="M521 0h-218v1269h-279v193h775v-193h-278v-1269z" />
    <glyph glyph-name="U" unicode="U" horiz-adv-x="1106" 
d="M976 1462v-993q0 -167 -48.5 -275.5t-142.5 -161t-232 -52.5q-205 0 -313.5 119.5t-108.5 366.5v996h219v-992q0 -157 53 -225.5t151 -68.5q67 0 112 29.5t67.5 94.5t22.5 172v990h220z" />
    <glyph glyph-name="V" unicode="V" horiz-adv-x="969" 
d="M969 1462l-359 -1462h-254l-356 1462h230l201 -917q10 -44 20 -98t18 -107.5t14 -97.5q6 44 14.5 97t19 107t20.5 100l203 916h229z" />
    <glyph glyph-name="W" unicode="W" horiz-adv-x="1522" 
d="M1516 1462l-294 -1462h-255l-163 826q-5 28 -10.5 62t-11 73.5t-11 85t-10.5 97.5q-4 -37 -8.5 -76.5t-10 -80t-12 -81t-13.5 -78.5l-162 -828h-253l-297 1462h218l159 -832q9 -49 17 -99t15.5 -99.5t13.5 -94t10 -82.5q6 47 13 97t15 98.5t16 93.5t15 82l168 836h193
l162 -834q8 -39 16 -83.5t15 -92t14 -97t13 -100.5q7 62 16 127t19.5 128.5t20.5 119.5l162 832h220z" />
    <glyph glyph-name="X" unicode="X" horiz-adv-x="887" 
d="M879 0h-236l-195 550l-210 -550h-229l316 754l-284 708h228l177 -509l178 509h231l-283 -713z" />
    <glyph glyph-name="Y" unicode="Y" horiz-adv-x="879" 
d="M441 814l210 648h228l-330 -896v-566h-219v560l-330 902h229z" />
    <glyph glyph-name="Z" unicode="Z" horiz-adv-x="804" 
d="M762 0h-712v163l463 1107h-454v192h690v-163l-463 -1104h476v-195z" />
    <glyph glyph-name="bracketleft" unicode="[" horiz-adv-x="633" 
d="M578 -333h-448v1816h448v-170h-251v-1477h251v-169z" />
    <glyph glyph-name="backslash" unicode="\" horiz-adv-x="789" 
d="M219 1472l547 -1481h-193l-545 1481h191z" />
    <glyph glyph-name="bracketright" unicode="]" horiz-adv-x="633" 
d="M56 -164h250v1477h-250v170h447v-1816h-447v169z" />
    <glyph glyph-name="asciicircum" unicode="^" horiz-adv-x="962" 
d="M25 628l397 833h118l398 -833h-199l-257 557l-260 -557h-197z" />
    <glyph glyph-name="underscore" unicode="_" horiz-adv-x="929" 
d="M933 -320h-937v161h937v-161z" />
    <glyph glyph-name="grave" unicode="`" horiz-adv-x="587" 
d="M327 1569q21 -46 52.5 -103t65.5 -110.5t60 -89.5v-25h-145q-29 26 -68 65t-79.5 84t-75 87t-55.5 73v19h245z" />
    <glyph glyph-name="a" unicode="a" horiz-adv-x="896" 
d="M466 1130q158 0 233 -99t75 -290v-741h-156l-33 153h-5q-30 -56 -67 -95t-84.5 -58.5t-110.5 -19.5q-89 0 -145 47.5t-82 124.5t-26 164q0 169 95.5 259t271.5 98l132 7v60q0 112 -32 165t-105 53q-47 0 -100.5 -17.5t-117.5 -54.5l-61 157q69 43 149.5 65t168.5 22z
M565 534l-88 -5q-101 -6 -150 -57t-49 -148q0 -89 31.5 -132t88.5 -43q77 0 122 74.5t45 203.5v107z" />
    <glyph glyph-name="b" unicode="b" horiz-adv-x="981" 
d="M335 1556v-423q0 -32 -1.5 -75.5t-5.5 -98.5h9q42 86 103.5 127.5t139.5 41.5q155 0 238.5 -147.5t83.5 -423.5q0 -183 -37.5 -312t-109.5 -197t-175 -68q-78 0 -136 35.5t-107 118.5h-12l-30 -134h-170v1556h210zM519 945q-72 0 -112 -45.5t-56 -127t-16 -191.5v-51
q0 -190 45.5 -280.5t139.5 -90.5q84 0 126 97.5t42 302.5q0 193 -40.5 289.5t-128.5 96.5z" />
    <glyph glyph-name="c" unicode="c" horiz-adv-x="760" 
d="M473 -20q-131 0 -218 63t-130 189t-43 316q0 176 42.5 306.5t130.5 203t223 72.5q72 0 130 -16t109 -46l-62 -170q-41 24 -81.5 35.5t-80.5 11.5q-64 0 -108 -45t-67 -132.5t-23 -218.5q0 -128 22.5 -214t67 -129.5t110.5 -43.5q51 0 102.5 17t102.5 49v-179
q-48 -35 -109 -52t-118 -17z" />
    <glyph glyph-name="d" unicode="d" horiz-adv-x="981" 
d="M407 -20q-160 0 -243 149.5t-83 424.5q0 274 83.5 425t235.5 151q52 0 98 -19.5t83.5 -56.5t64.5 -91h8q-2 56 -4 97.5t-2 73.5v422h209v-1556h-168l-29 136h-12q-30 -51 -65 -86t-78 -52.5t-98 -17.5zM463 157q92 0 138.5 87.5t46.5 266.5v69q0 188 -44.5 276.5
t-141.5 88.5q-86 0 -127 -99.5t-41 -290.5q0 -198 42 -298t127 -100z" />
    <glyph glyph-name="e" unicode="e" horiz-adv-x="892" 
d="M458 1128q119 0 199 -63.5t120 -175.5t40 -257v-129h-528q2 -176 58.5 -262.5t172.5 -86.5q65 0 125 18.5t127 60.5v-180q-62 -37 -131 -55t-148 -18q-146 0 -237 71.5t-132.5 199.5t-41.5 297q0 187 42 316t126 196.5t208 67.5zM461 960q-77 0 -121 -72t-49 -227h331
q0 86 -18 153.5t-53.5 106.5t-89.5 39z" />
    <glyph glyph-name="f" unicode="f" horiz-adv-x="560" 
d="M536 934h-177v-934h-210v934h-132v113l132 65v54q0 134 25.5 223t84.5 133.5t158 44.5q51 0 93.5 -9t94.5 -29l-49 -163q-28 10 -52.5 15.5t-49.5 5.5q-53 0 -73.5 -46t-21.5 -163v-69h177v-175z" />
    <glyph glyph-name="g" unicode="g" horiz-adv-x="864" 
d="M377 -492q-172 0 -268 81t-96 228q0 106 55.5 177t144.5 96q-45 20 -73.5 61t-28.5 97q0 60 27.5 104t75.5 87q-63 39 -100.5 124.5t-37.5 192.5q0 116 40 199t116 128t184 45q34 0 59 -3.5t44.5 -8.5t33.5 -12h298v-129l-139 -24q23 -41 33.5 -90t10.5 -103
q0 -175 -88.5 -272.5t-250.5 -97.5q-50 0 -76 9q-22 -20 -39.5 -46.5t-17.5 -66.5q0 -26 13 -45.5t39 -29.5t65 -10h172q128 0 197.5 -73t69.5 -222q0 -190 -118.5 -293t-344.5 -103zM392 -331q84 0 139.5 23t82.5 69.5t27 113.5q0 55 -16.5 83.5t-51.5 39.5t-89 11h-138
q-39 0 -69.5 -18t-48 -56t-17.5 -100q0 -82 48.5 -124t132.5 -42zM417 537q62 0 95 55.5t33 163.5q0 113 -33.5 168.5t-95.5 55.5q-61 0 -94.5 -58t-33.5 -167q0 -105 32 -161.5t97 -56.5z" />
    <glyph glyph-name="h" unicode="h" horiz-adv-x="975" 
d="M335 1556v-399q0 -52 -4 -101.5t-12 -95.5h14q21 54 56 91.5t82 58t102 20.5q94 0 156.5 -44.5t93 -131t30.5 -211.5v-743h-210v690q0 132 -30 191.5t-96 59.5q-65 0 -105 -41t-58.5 -125.5t-18.5 -217.5v-557h-210v1556h210z" />
    <glyph glyph-name="i" unicode="i" horiz-adv-x="462" 
d="M336 1109v-1109h-209v1109h209zM233 1536q61 0 89 -35t28 -99q0 -62 -29.5 -96.5t-87.5 -34.5q-57 0 -88.5 34.5t-31.5 96.5q0 66 30 100t90 34z" />
    <glyph glyph-name="j" unicode="j" horiz-adv-x="462" 
d="M79 -492q-32 0 -62 5.5t-57 15.5v183q19 -8 39 -12.5t38 -4.5q47 0 68 39.5t21 123.5v1251h210v-1258q0 -118 -30 -193.5t-87.5 -111.5t-139.5 -38zM113 1402q0 66 30 100t90 34t88.5 -35t28.5 -99q0 -62 -29.5 -96.5t-87.5 -34.5q-57 0 -88.5 34.5t-31.5 96.5z" />
    <glyph glyph-name="k" unicode="k" horiz-adv-x="885" 
d="M335 1556v-727q0 -64 -2 -125.5t-9 -122.5h8q17 39 36.5 73.5t37.5 64.5l234 390h226l-278 -440l295 -669h-228l-210 508l-110 -124v-384h-210v1556h210z" />
    <glyph glyph-name="l" unicode="l" horiz-adv-x="458" 
d="M335 0h-210v1556h210v-1556z" />
    <glyph glyph-name="m" unicode="m" horiz-adv-x="1455" 
d="M1066 1130q136 0 202.5 -96.5t66.5 -294.5v-739h-210v686q0 135 -32 196t-95 61q-89 0 -126 -88.5t-37 -262.5v-592h-210v689q0 90 -14 146t-41.5 82t-69.5 26q-66 0 -101.5 -46.5t-49.5 -132t-14 -202.5v-562h-210v1109h167l23 -149h13q21 54 56 92t83.5 58t107.5 20
q96 0 152 -48.5t77 -122.5h15q38 85 96.5 128t150.5 43z" />
    <glyph glyph-name="n" unicode="n" horiz-adv-x="975" 
d="M574 1130q136 0 207.5 -97t71.5 -288v-745h-210v691q0 125 -29 188.5t-100 63.5q-96 0 -137.5 -89t-41.5 -295v-559h-210v1109h167l22 -151h14q24 54 60 92.5t83 59t103 20.5z" />
    <glyph glyph-name="o" unicode="o" horiz-adv-x="951" 
d="M871 557q0 -124 -23 -229t-70.5 -183t-123 -121.5t-180.5 -43.5q-100 0 -174 43t-122.5 120.5t-72.5 183t-24 230.5q0 175 41.5 303.5t129.5 199t225 70.5q123 0 211.5 -66t135.5 -193.5t47 -313.5zM294 555q0 -130 19.5 -218t60 -132.5t103.5 -44.5t102.5 44t58 132
t18.5 221q0 130 -18.5 217.5t-58 131t-103.5 43.5q-96 0 -139 -97.5t-43 -296.5z" />
    <glyph glyph-name="p" unicode="p" horiz-adv-x="981" 
d="M576 1130q158 0 241.5 -147t83.5 -429q0 -181 -37.5 -309.5t-108.5 -196.5t-171 -68q-53 0 -100 20t-84 58t-64 93h-9q4 -52 6 -94t2 -74v-474h-210v1600h170l29 -154h11q31 64 67 102t79.5 55.5t94.5 17.5zM518 950q-62 0 -102.5 -39t-60.5 -119t-20 -205v-54
q0 -127 20 -209t61 -121.5t103 -39.5q56 0 93.5 42t56.5 128.5t19 218.5q0 200 -40 299t-130 99z" />
    <glyph glyph-name="q" unicode="q" horiz-adv-x="981" 
d="M647 -491v450q0 32 2.5 81.5t6.5 115.5h-9q-43 -89 -104.5 -132.5t-142.5 -43.5q-151 0 -235 147t-84 421q0 189 39 318t112 196.5t176 67.5q80 0 137.5 -39.5t100.5 -129.5h12l20 148h179v-1600h-210zM466 163q60 0 100 38t60.5 114.5t20.5 190.5v62q0 197 -44.5 287
t-141.5 90q-84 0 -125.5 -101t-41.5 -298q0 -199 43 -291t129 -92z" />
    <glyph glyph-name="r" unicode="r" horiz-adv-x="663" 
d="M552 1129q22 0 44 -3.5t49 -11.5l-24 -221q-19 8 -41 11t-47 3q-46 0 -82.5 -24.5t-62.5 -70t-39.5 -106.5t-12.5 -134v-572h-210v1109h162l30 -189h11q23 58 55 105.5t74 75.5t94 28z" />
    <glyph glyph-name="s" unicode="s" horiz-adv-x="727" 
d="M667 309q0 -106 -39.5 -179.5t-114 -111.5t-179.5 -38q-79 0 -147 17t-123 45v209q49 -36 117 -61t138 -25q67 0 102.5 35t35.5 99q0 38 -14.5 67.5t-51 59t-103.5 64.5q-68 40 -119 87t-78.5 108t-27.5 143q0 138 88 220t236 82q76 0 143 -20t129 -59l-65 -165
q-45 31 -95.5 50.5t-102.5 19.5q-61 0 -95.5 -32.5t-34.5 -87.5q0 -37 14.5 -64t52 -55.5t103.5 -68.5q69 -42 120.5 -87.5t81 -105.5t29.5 -146z" />
    <glyph glyph-name="t" unicode="t" horiz-adv-x="584" 
d="M441 165q26 0 54.5 6.5t56.5 19.5v-170q-37 -19 -81.5 -30t-95.5 -11q-84 0 -137 35.5t-77.5 106.5t-24.5 179v633h-106v114l120 55l52 249h144v-243h193v-175h-193v-619q0 -76 20.5 -113t74.5 -37z" />
    <glyph glyph-name="u" unicode="u" horiz-adv-x="975" 
d="M850 1109v-1109h-166l-23 150h-13q-24 -54 -59.5 -92t-82 -58t-103.5 -20q-97 0 -159.5 48.5t-92 139t-29.5 215.5v726h210v-671q0 -137 29.5 -203.5t93.5 -66.5q72 0 112 40.5t56.5 121.5t16.5 200v579h210z" />
    <glyph glyph-name="v" unicode="v" horiz-adv-x="825" 
d="M296 0l-289 1109h218l139 -629q14 -59 24 -120t19 -128h8q3 43 13 98.5t25 122.5l148 656h217l-292 -1109h-230z" />
    <glyph glyph-name="w" unicode="w" horiz-adv-x="1311" 
d="M812 0l-117 622q-5 32 -10 65.5t-10 67.5t-9 67.5t-8 63.5h-6q-4 -33 -9 -67.5t-9.5 -68.5t-9.5 -66t-11 -61l-122 -623h-239l-237 1109h211l98 -501q10 -55 19.5 -115t17.5 -121t15 -120h6q4 37 9 76.5t11.5 83t14.5 90t18 95.5l102 512h238l101 -516q9 -49 18 -104.5
t17.5 -115t16.5 -121.5h7q3 40 8 84.5t12.5 94.5t16.5 102l116 576h207l-241 -1109h-242z" />
    <glyph glyph-name="x" unicode="x" horiz-adv-x="821" 
d="M283 570l-246 539h226l150 -371l150 371h225l-247 -545l258 -564h-226l-165 397l-163 -397h-222z" />
    <glyph glyph-name="y" unicode="y" horiz-adv-x="828" 
d="M9 1109h219l143 -592q9 -39 17.5 -78t15 -76t10.5 -73h8q6 50 17 105.5t27 120.5l137 593h217l-330 -1251q-33 -124 -77.5 -201t-105 -113t-142.5 -36q-29 0 -56.5 5t-56.5 12v186q20 -6 40.5 -10t39.5 -4q39 0 65.5 17.5t47 61.5t41.5 124l28 110z" />
    <glyph glyph-name="z" unicode="z" horiz-adv-x="675" 
d="M634 0h-587v136l340 795h-319v178h551v-146l-332 -786h347v-177z" />
    <glyph glyph-name="braceleft" unicode="{" horiz-adv-x="743" 
d="M670 -333q-139 1 -226.5 33.5t-128 104.5t-40.5 191v297q0 65 -20 108t-65.5 64.5t-121.5 21.5v165q71 0 117 18.5t68 61t22 113.5v300q0 113 37.5 184.5t124 106.5t233.5 36v-169q-64 -2 -107 -18t-64.5 -52.5t-21.5 -101.5v-303q0 -114 -42.5 -175t-143.5 -79v-10
q103 -18 144.5 -80t41.5 -171v-304q0 -60 19 -97.5t61.5 -55.5t112.5 -20v-169z" />
    <glyph glyph-name="bar" unicode="|" horiz-adv-x="836" 
d="M323 1568h189v-2048h-189v2048z" />
    <glyph glyph-name="braceright" unicode="}" horiz-adv-x="743" 
d="M72 -333v169q70 2 112.5 19t62 54.5t19.5 99.5v304q0 112 42 172.5t142 78.5v10q-100 18 -142 79.5t-42 174.5v303q0 66 -23.5 102.5t-67 52t-103.5 17.5v169q139 -1 226 -33.5t127.5 -104t40.5 -189.5v-300q0 -64 19.5 -107t65 -64.5t123.5 -21.5v-165q-74 0 -120 -20.5
t-67 -63t-21 -110.5v-297q0 -113 -37 -185.5t-123.5 -107.5t-233.5 -36z" />
    <glyph glyph-name="asciitilde" unicode="~" horiz-adv-x="922" 
d="M437 638q-50 27 -96 41.5t-87 14.5q-46 0 -96 -31t-100 -89v191q43 51 95 77.5t117 26.5q58 0 109 -17.5t106 -44.5q53 -27 97 -41.5t86 -14.5q46 0 98.5 33t96.5 86v-191q-42 -49 -94.5 -75t-114.5 -26t-110 16t-107 44z" />
    <glyph glyph-name="uni00A0" unicode="&#xa0;" horiz-adv-x="374" 
 />
    <glyph glyph-name="exclamdown" unicode="&#xa1;" horiz-adv-x="499" 
d="M165 659h170l38 -1039h-249zM384 974q0 -75 -35.5 -111t-96.5 -36q-64 0 -97 37.5t-33 109.5q0 69 33 107.5t97 38.5q59 0 95.5 -37t36.5 -109z" />
    <glyph glyph-name="cent" unicode="&#xa2;" horiz-adv-x="918" 
d="M581 1483v-163q53 -4 103 -19.5t91 -39.5l-60 -173q-41 25 -83 37t-77 12q-68 0 -112.5 -42.5t-66 -130t-21.5 -221.5t21.5 -219.5t65 -126.5t110.5 -41q49 0 103 18t104 48v-180q-35 -24 -80.5 -40.5t-97.5 -23.5v-198h-125v199q-108 14 -178 84.5t-103.5 192
t-33.5 286.5q0 164 34.5 286.5t104 196.5t175.5 90v168h126z" />
    <glyph glyph-name="sterling" unicode="&#xa3;" horiz-adv-x="915" 
d="M556 1483q75 0 141.5 -21t128.5 -63l-68 -172q-53 33 -98.5 48t-88.5 15q-67 0 -97.5 -49.5t-30.5 -158.5v-260h255v-165h-255v-199q0 -61 -14 -110.5t-42.5 -87.5t-71.5 -65h524v-195h-748v182q46 25 76.5 61t45.5 88.5t15 125.5v200h-143v165h143v261q0 132 37 221
t110.5 134t180.5 45z" />
    <glyph glyph-name="currency" unicode="&#xa4;" horiz-adv-x="1125" 
d="M164 723q0 61 18 116.5t54 106.5l-134 136l102 100l131 -134q51 36 107 54t119 18q62 0 118 -17.5t106 -54.5l133 134l104 -99l-133 -135q34 -49 51.5 -105.5t17.5 -119.5q0 -62 -17 -119.5t-52 -107.5l131 -132l-101 -101l-134 133q-50 -34 -107 -51.5t-117 -17.5
q-65 0 -122 17.5t-105 53.5l-130 -133l-100 102l132 131q-36 50 -54 106.5t-18 118.5zM307 723q0 -70 33.5 -128.5t91.5 -93t129 -34.5q74 0 132.5 35t92.5 93.5t34 127.5q0 70 -35.5 128.5t-94.5 94t-129 35.5q-69 0 -127 -34.5t-92.5 -93t-34.5 -130.5z" />
    <glyph glyph-name="yen" unicode="&#xa5;" horiz-adv-x="916" 
d="M458 827l176 635h225l-258 -759h202v-145h-239v-161h239v-144h-239v-253h-215v253h-237v144h237v161h-237v145h196l-255 759h224z" />
    <glyph glyph-name="brokenbar" unicode="&#xa6;" horiz-adv-x="836" 
d="M323 1555h189v-804h-189v804zM323 323h189v-805h-189v805z" />
    <glyph glyph-name="section" unicode="&#xa7;" horiz-adv-x="795" 
d="M81 821q0 77 40 137t110 97q-65 48 -97.5 106t-32.5 127q0 127 89.5 198.5t226.5 71.5q75 0 138.5 -17.5t128.5 -52.5l-60 -148q-56 34 -105 50.5t-96 16.5q-65 0 -101 -31t-36 -85q0 -40 19 -68.5t55.5 -53t88.5 -53.5q85 -43 141.5 -86.5t84.5 -97t28 -127.5
q0 -80 -32.5 -142.5t-91.5 -104.5q61 -49 88 -104.5t27 -125.5q0 -136 -92.5 -216.5t-247.5 -80.5q-80 0 -147 18.5t-122 53.5v172q35 -26 80.5 -47t93.5 -33t89 -12q76 0 118.5 37.5t42.5 98.5q0 44 -17 72t-58 55.5t-113 67.5q-87 48 -139.5 91.5t-76.5 95t-24 120.5z
M254 846q0 -38 17 -68t48.5 -55.5t75.5 -51.5l69 -39q32 24 49.5 59t17.5 81q0 45 -15.5 77t-55.5 63.5t-114 71.5q-45 -18 -68.5 -54t-23.5 -84z" />
    <glyph glyph-name="dieresis" unicode="&#xa8;" horiz-adv-x="1034" 
d="M237 1381q0 59 29 88.5t75 29.5t74.5 -30.5t28.5 -87.5t-28.5 -87.5t-74.5 -30.5t-75 30t-29 88zM587 1381q0 59 29 88.5t75 29.5q47 0 76 -30.5t29 -87.5t-29 -87.5t-76 -30.5t-75.5 30.5t-28.5 87.5z" />
    <glyph glyph-name="copyright" unicode="&#xa9;" horiz-adv-x="1696" 
d="M844 -20q-172 0 -310.5 58t-237 161t-151.5 239t-53 292q0 168 58.5 306.5t162 238.5t241 154t295.5 54q166 0 304.5 -57t239.5 -159.5t156 -240t55 -297.5q0 -163 -56.5 -300.5t-159.5 -238t-241.5 -155.5t-302.5 -55zM880 271q-198 0 -308 119.5t-110 337.5
q0 144 50.5 247t144.5 158.5t226 55.5q72 0 140.5 -16t135.5 -48l-64 -131q-52 25 -103 37t-98 12q-121 0 -188 -79.5t-67 -235.5q0 -160 64 -235t191 -75q54 0 112 13.5t116 40.5v-146q-57 -27 -117.5 -41t-124.5 -14zM851 99q138 0 251.5 47t196.5 132.5t127.5 200.5
t44.5 250q0 141 -46.5 257t-131 201t-198 131t-248.5 46q-140 0 -254.5 -48.5t-197 -135t-127 -202t-44.5 -250.5q0 -141 47.5 -257t132.5 -199t199 -128t248 -45z" />
    <glyph glyph-name="ordfeminine" unicode="&#xaa;" horiz-adv-x="644" 
d="M332 1479q108 0 162 -62.5t54 -184.5v-452h-107l-27 106q-31 -57 -77.5 -87.5t-113.5 -30.5q-54 0 -93 28.5t-60 76.5t-21 106q0 76 32.5 121t92 67t142.5 29l79 6v41q0 57 -21 83.5t-71 26.5q-42 0 -80 -13.5t-80 -36.5l-46 114q56 30 112.5 46t122.5 16zM395 1103
l-60 -6q-68 -6 -99.5 -32.5t-31.5 -80.5q0 -45 20 -68.5t58 -23.5q53 0 83 45.5t30 121.5v44z" />
    <glyph glyph-name="guillemotleft" unicode="&#xab;" horiz-adv-x="999" 
d="M64 567l302 419l149 -78l-216 -355l216 -352l-149 -81l-302 418v29zM481 567l303 419l148 -78l-214 -355l214 -352l-148 -81l-303 418v29z" />
    <glyph glyph-name="logicalnot" unicode="&#xac;" horiz-adv-x="922" 
d="M842 810v-566h-177v392h-600v174h777z" />
    <glyph glyph-name="uni00AD" unicode="&#xad;" horiz-adv-x="592" 
d="M56 449v205h480v-205h-480z" />
    <glyph glyph-name="registered" unicode="&#xae;" horiz-adv-x="1696" 
d="M560 302v878h259q161 0 246.5 -64.5t85.5 -197.5q0 -88 -36 -147.5t-111 -93.5l197 -375h-189l-162 341h-117v-341h-173zM732 770h77q76 0 120 33.5t44 107.5q0 69 -39 99.5t-124 30.5h-78v-271zM844 -20q-172 0 -310.5 58t-237 161t-151.5 239t-53 292q0 168 58.5 306.5
t162 238.5t241 154t295.5 54q166 0 304.5 -57t239.5 -159.5t156 -240t55 -297.5q0 -163 -56.5 -300.5t-159.5 -238t-241.5 -155.5t-302.5 -55zM851 99q138 0 251.5 47t196.5 132.5t127.5 200.5t44.5 250q0 141 -46.5 257t-131 201t-198 131t-248.5 46q-140 0 -254.5 -48.5
t-197 -135t-127 -202t-44.5 -250.5q0 -141 47.5 -257t132.5 -199t199 -128t248 -45z" />
    <glyph glyph-name="overscore" unicode="&#xaf;" horiz-adv-x="925" 
d="M931 1556h-937v162h937v-162z" />
    <glyph glyph-name="degree" unicode="&#xb0;" horiz-adv-x="744" 
d="M371 910q-84 0 -150 35.5t-104.5 100.5t-38.5 151t39 150.5t105.5 99.5t148.5 35q84 0 150.5 -35.5t105 -99.5t38.5 -150q0 -87 -39 -151.5t-105.5 -100t-149.5 -35.5zM372 1040q70 0 111 42.5t41 114.5q0 70 -40.5 112.5t-111.5 42.5q-74 0 -113.5 -44.5t-39.5 -110.5
q0 -73 42.5 -115t110.5 -42z" />
    <glyph glyph-name="plusminus" unicode="&#xb1;" horiz-adv-x="922" 
d="M65 0v174h790v-174h-790zM549 871h306v-174h-306v-396h-176v396h-308v174h308v401h176v-401z" />
    <glyph glyph-name="uni00B2" unicode="&#xb2;" horiz-adv-x="662" 
d="M579 850h-523v140l183 220q53 65 87.5 113t51 89.5t16.5 87.5q0 47 -28 77t-80 30q-42 0 -79.5 -21t-74.5 -64l-80 107q41 53 107 86t145 33q122 0 188.5 -65t66.5 -169q0 -73 -25 -134t-79.5 -129.5t-143.5 -166.5l-75 -93h343v-141z" />
    <glyph glyph-name="uni00B3" unicode="&#xb3;" horiz-adv-x="662" 
d="M302 1747q115 0 184.5 -58.5t69.5 -162.5q0 -77 -35.5 -130t-101.5 -82v-7q80 -24 120.5 -79t40.5 -143q0 -116 -83.5 -183t-215.5 -67q-61 0 -116 13.5t-104 41.5v156q47 -33 102 -49.5t117 -16.5q73 0 107 32.5t34 86.5q0 67 -39.5 101t-122.5 34h-76v131h68
q74 0 112 35t38 96q0 51 -28.5 80t-85.5 29q-44 0 -82 -17t-79 -55l-74 109q56 52 118.5 78.5t131.5 26.5z" />
    <glyph glyph-name="acute" unicode="&#xb4;" horiz-adv-x="586" 
d="M504 1569v-19q-20 -31 -53 -71t-72.5 -83.5t-79 -83.5t-73.5 -71h-144v25q38 55 70 106.5t59 101t49 95.5h244z" />
    <glyph glyph-name="uni00B5" unicode="&#xb5;" horiz-adv-x="977" 
d="M852 1109v-1109h-166l-23 151h-12q-18 -52 -46.5 -90.5t-64 -59.5t-75.5 -21q-48 0 -80 23.5t-53 72.5h-6q2 -35 4 -71t3 -71t1 -69v-356h-210v1600h210v-682q0 -128 29.5 -193.5t93.5 -65.5q72 0 112 45.5t56.5 131.5t16.5 205v559h210z" />
    <glyph glyph-name="paragraph" unicode="&#xb6;" horiz-adv-x="1001" 
d="M850 -260h-132v1690h-133v-1690h-131v828q-18 -9 -38 -13.5t-44 -4.5q-90 0 -148.5 55.5t-87 166t-28.5 275.5q0 168 31.5 281.5t98 170.5t171.5 57h441v-1816z" />
    <glyph glyph-name="periodcentered" unicode="&#xb7;" horiz-adv-x="488" 
d="M113 719q0 72 34 109.5t98 37.5q62 0 96.5 -36t34.5 -111q0 -72 -35.5 -109t-95.5 -37q-61 0 -96.5 37.5t-35.5 108.5z" />
    <glyph glyph-name="cedilla" unicode="&#xb8;" horiz-adv-x="380" 
d="M373 -274q0 -104 -64.5 -161t-182.5 -57q-40 0 -73.5 4.5t-58.5 10.5v130q24 -7 48.5 -10.5t47.5 -3.5q57 0 86 24.5t29 65.5q0 48 -40.5 73.5t-111.5 32.5l70 165h115l-40 -93q56 -11 95 -35t59.5 -61t20.5 -85z" />
    <glyph glyph-name="uni00B9" unicode="&#xb9;" horiz-adv-x="662" 
d="M472 1726v-876h-161v487q0 33 0.5 66t2 66t4.5 67q-15 -16 -28 -26.5t-24 -18.5l-111 -87l-81 109l266 213h132z" />
    <glyph glyph-name="ordmasculine" unicode="&#xba;" horiz-adv-x="658" 
d="M601 1125q0 -168 -70 -262.5t-200 -94.5q-131 0 -202.5 95.5t-71.5 261.5q0 167 73.5 260.5t200.5 93.5q83 0 143.5 -40.5t93.5 -119.5t33 -194zM216 1124q0 -115 28 -170.5t86 -55.5q61 0 88 55.5t27 170.5q0 114 -27 169.5t-88 55.5q-55 0 -84.5 -55t-29.5 -170z" />
    <glyph glyph-name="guillemotright" unicode="&#xbb;" horiz-adv-x="998" 
d="M935 538l-303 -418l-148 81l215 352l-215 355l148 78l303 -419v-29zM520 538l-303 -418l-148 81l213 352l-213 355l148 78l303 -419v-29z" />
    <glyph glyph-name="onequarter" unicode="&#xbc;" horiz-adv-x="1539" 
d="M341 0l734 1462h175l-737 -1462h-172zM295 586v488q0 33 1 65.5t2 66t4 67.5q-15 -16 -28 -27.5t-23 -19.5l-112 -85l-81 107l266 214h133v-876h-162zM1244 0v176h-330v120l319 584h168v-570h107v-134h-107v-176h-157zM1056 310h188v233q0 46 1 84t4 65
q-10 -28 -21.5 -54.5t-26.5 -54.5z" />
    <glyph glyph-name="onehalf" unicode="&#xbd;" horiz-adv-x="1586" 
d="M313 0l734 1462h175l-737 -1462h-172zM295 586v488q0 24 0.5 48.5t1 49.5t2 50.5t3.5 50.5q-15 -16 -28 -27.5t-23 -19.5l-112 -85l-81 107l266 214h133v-876h-162zM980 0v141l183 214q55 65 90 112.5t51 89.5t16 89q0 49 -29 79.5t-81 30.5q-42 0 -80 -20.5t-75 -64.5
l-79 108q41 53 107 86t145 33q122 0 188.5 -65t66.5 -168q0 -74 -23 -132t-63.5 -112t-93.5 -117l-143 -162h343v-142h-523z" />
    <glyph glyph-name="threequarters" unicode="&#xbe;" horiz-adv-x="1558" 
d="M357 0l735 1462h174l-736 -1462h-173zM280 570q-61 0 -116 14t-104 42v155q47 -31 102 -48.5t117 -17.5q73 0 107 32t34 87q0 68 -40 102.5t-122 34.5h-76v131h68q74 0 112 35t38 96q0 51 -28.5 80.5t-85.5 29.5q-44 0 -82 -18.5t-79 -55.5l-74 109q56 52 118.5 78.5
t131.5 26.5q115 0 184.5 -58.5t69.5 -162.5q0 -76 -35.5 -130t-101.5 -82v-8q80 -23 120.5 -77.5t40.5 -143.5q0 -116 -83.5 -183.5t-215.5 -67.5zM1263 0v176h-330v120l319 584h168v-570h107v-134h-107v-176h-157zM1074 310h189v233q0 46 1 84t4 65q-10 -28 -22 -54.5
t-26 -54.5z" />
    <glyph glyph-name="questiondown" unicode="&#xbf;" horiz-adv-x="698" 
d="M492 659v-67q0 -69 -11 -123.5t-36.5 -102.5t-69.5 -100q-46 -55 -74 -100t-41 -89.5t-13 -98.5q0 -85 37.5 -128.5t106.5 -43.5q56 0 107 21.5t107 60.5l75 -165q-73 -53 -148.5 -80t-154.5 -27q-164 0 -251 90t-87 254q0 88 19 153.5t58 123.5t97 126q45 52 68 90.5
t31 76t8 85.5v44h172zM535 973q0 -72 -33.5 -109.5t-97.5 -37.5q-61 0 -95.5 36t-34.5 110q0 73 35 110t95 37q62 0 96.5 -37.5t34.5 -108.5z" />
    <glyph glyph-name="Agrave" unicode="&#xc0;" horiz-adv-x="992" 
d="M758 0l-93 411h-336l-93 -411h-236l354 1462h278l360 -1462h-234zM628 607l-95 441q-8 43 -15 83.5t-13 78.5t-11 73q-3 -34 -8.5 -72t-13 -78t-16.5 -82l-93 -444h265zM422 1904q21 -46 52.5 -103t65.5 -110.5t60 -89.5v-25h-145q-29 26 -68 65t-79.5 84t-75 87
t-55.5 73v19h245z" />
    <glyph glyph-name="Aacute" unicode="&#xc1;" horiz-adv-x="992" 
d="M758 0l-93 411h-336l-93 -411h-236l354 1462h278l360 -1462h-234zM628 607l-95 441q-8 43 -15 83.5t-13 78.5t-11 73q-3 -34 -8.5 -72t-13 -78t-16.5 -82l-93 -444h265zM798 1904v-19q-20 -31 -53 -71t-72.5 -83.5t-79 -83.5t-73.5 -71h-144v25q38 55 70 106.5t59 101
t49 95.5h244z" />
    <glyph glyph-name="Acircumflex" unicode="&#xc2;" horiz-adv-x="992" 
d="M758 0l-93 411h-336l-93 -411h-236l354 1462h278l360 -1462h-234zM628 607l-95 441q-8 43 -15 83.5t-13 78.5t-11 73q-3 -34 -8.5 -72t-13 -78t-16.5 -82l-93 -444h265zM592 1904q22 -46 53.5 -98.5t67 -106t70.5 -99.5v-24h-123q-39 36 -80 83t-86 100q-45 -53 -88 -102
t-77 -81h-124v24q34 44 70.5 99t68.5 109t52 96h196z" />
    <glyph glyph-name="Atilde" unicode="&#xc3;" horiz-adv-x="992" 
d="M758 0l-93 411h-336l-93 -411h-236l354 1462h278l360 -1462h-234zM628 607l-95 441q-8 43 -15 83.5t-13 78.5t-11 73q-3 -34 -8.5 -72t-13 -78t-16.5 -82l-93 -444h265zM181 1576q4 48 13 96.5t28.5 88.5t51.5 64t80 24q39 0 74.5 -16.5t69 -39t65 -39t62.5 -16.5
q30 0 45 30.5t23 82.5h122q-5 -133 -53 -203t-119 -70q-38 0 -75.5 17t-72.5 39t-65.5 39t-54.5 17q-25 0 -45 -28.5t-28 -85.5h-121z" />
    <glyph glyph-name="Adieresis" unicode="&#xc4;" horiz-adv-x="992" 
d="M758 0l-93 411h-336l-93 -411h-236l354 1462h278l360 -1462h-234zM628 607l-95 441q-8 43 -15 83.5t-13 78.5t-11 73q-3 -34 -8.5 -72t-13 -78t-16.5 -82l-93 -444h265zM216 1716q0 59 29 88.5t75 29.5t74.5 -30.5t28.5 -87.5t-28.5 -87.5t-74.5 -30.5t-75 30t-29 88z
M566 1716q0 59 29 88.5t75 29.5q47 0 76 -30.5t29 -87.5t-29 -87.5t-76 -30.5t-75.5 30.5t-28.5 87.5z" />
    <glyph glyph-name="Aring" unicode="&#xc5;" horiz-adv-x="992" 
d="M758 0l-93 411h-336l-93 -411h-236l354 1462h278l360 -1462h-234zM628 607l-95 441q-8 43 -15 83.5t-13 78.5t-11 73q-3 -34 -8.5 -72t-13 -78t-16.5 -82l-93 -444h265zM495 1351q-102 0 -163 60.5t-61 157.5q0 98 61 158.5t163 60.5q100 0 163 -60t63 -156
q0 -97 -61.5 -159t-164.5 -62zM498 1470q44 0 73 27.5t29 72.5t-27.5 73.5t-74.5 28.5q-46 0 -75 -28.5t-29 -73.5t26 -72.5t78 -27.5z" />
    <glyph glyph-name="AE" unicode="&#xc6;" horiz-adv-x="1335" 
d="M1244 0h-618v411h-276l-116 -411h-239l442 1462h807v-192h-401v-413h375v-191h-375v-471h401v-195zM403 607h224v662h-39z" />
    <glyph glyph-name="Ccedilla" unicode="&#xc7;" horiz-adv-x="948" 
d="M615 1291q-76 0 -131 -43.5t-90.5 -121t-52.5 -179.5t-17 -218q0 -175 36 -299.5t104 -190t163 -65.5q65 0 123 19.5t111 46.5v-197q-56 -31 -121.5 -47t-142.5 -16q-157 0 -269 89t-172 257t-60 405q0 160 32 296.5t95.5 239.5t158.5 160t220 57q80 0 154 -20t143 -61
l-69 -183q-50 33 -103 52t-112 19zM746 -274q0 -104 -64.5 -161t-182.5 -57q-40 0 -73.5 4.5t-58.5 10.5v130q24 -7 48.5 -10.5t47.5 -3.5q57 0 86 24.5t29 65.5q0 48 -40.5 73.5t-111.5 32.5l70 165h115l-40 -93q56 -11 95 -35t59.5 -61t20.5 -85z" />
    <glyph glyph-name="Egrave" unicode="&#xc8;" horiz-adv-x="846" 
d="M757 0h-616v1462h616v-190h-396v-415h371v-191h-371v-471h396v-195zM390 1904q21 -46 52.5 -103t65.5 -110.5t60 -89.5v-25h-145q-29 26 -68 65t-79.5 84t-75 87t-55.5 73v19h245z" />
    <glyph glyph-name="Eacute" unicode="&#xc9;" horiz-adv-x="846" 
d="M757 0h-616v1462h616v-190h-396v-415h371v-191h-371v-471h396v-195zM752 1904v-19q-20 -31 -53 -71t-72.5 -83.5t-79 -83.5t-73.5 -71h-144v25q38 55 70 106.5t59 101t49 95.5h244z" />
    <glyph glyph-name="Ecircumflex" unicode="&#xca;" horiz-adv-x="846" 
d="M757 0h-616v1462h616v-190h-396v-415h371v-191h-371v-471h396v-195zM545 1904q22 -46 53.5 -98.5t67 -106t70.5 -99.5v-24h-123q-39 36 -80 83t-86 100q-45 -53 -88 -102t-77 -81h-124v24q34 44 70.5 99t68.5 109t52 96h196z" />
    <glyph glyph-name="Edieresis" unicode="&#xcb;" horiz-adv-x="846" 
d="M757 0h-616v1462h616v-190h-396v-415h371v-191h-371v-471h396v-195zM165 1716q0 59 29 88.5t75 29.5t74.5 -30.5t28.5 -87.5t-28.5 -87.5t-74.5 -30.5t-75 30t-29 88zM515 1716q0 59 29 88.5t75 29.5q47 0 76 -30.5t29 -87.5t-29 -87.5t-76 -30.5t-75.5 30.5t-28.5 87.5z
" />
    <glyph glyph-name="Igrave" unicode="&#xcc;" horiz-adv-x="501" 
d="M141 0v1462h220v-1462h-220zM192 1913q21 -46 52.5 -103t65.5 -110.5t60 -89.5v-25h-145q-29 26 -68 65t-79.5 84t-75 87t-55.5 73v19h245z" />
    <glyph glyph-name="Iacute" unicode="&#xcd;" horiz-adv-x="501" 
d="M141 0v1462h220v-1462h-220zM550 1913v-19q-20 -31 -53 -71t-72.5 -83.5t-79 -83.5t-73.5 -71h-144v25q38 55 70 106.5t59 101t49 95.5h244z" />
    <glyph glyph-name="Icircumflex" unicode="&#xce;" horiz-adv-x="501" 
d="M141 0v1462h220v-1462h-220zM349 1911q22 -46 53.5 -98.5t67 -106t70.5 -99.5v-24h-123q-39 36 -80 83t-86 100q-45 -53 -88 -102t-77 -81h-124v24q34 44 70.5 99t68.5 109t52 96h196z" />
    <glyph glyph-name="Idieresis" unicode="&#xcf;" horiz-adv-x="501" 
d="M141 0v1462h220v-1462h-220zM-31 1724q0 59 29 88.5t75 29.5t74.5 -30.5t28.5 -87.5t-28.5 -87.5t-74.5 -30.5t-75 30t-29 88zM319 1724q0 59 29 88.5t75 29.5q47 0 76 -30.5t29 -87.5t-29 -87.5t-76 -30.5t-75.5 30.5t-28.5 87.5z" />
    <glyph glyph-name="Eth" unicode="&#xd0;" horiz-adv-x="1097" 
d="M473 1462q171 0 289 -81t178.5 -239t60.5 -388q0 -246 -62 -414t-183 -254t-299 -86h-316v668h-110v170h110v624h332zM469 1270h-107v-432h184v-170h-184v-473h92q166 0 243 136.5t77 411.5q0 178 -33.5 295t-101.5 174.5t-170 57.5z" />
    <glyph glyph-name="Ntilde" unicode="&#xd1;" horiz-adv-x="1212" 
d="M1073 0h-262l-469 1115h-8q5 -62 8 -118t4.5 -105t1.5 -92v-800h-207v1462h260l469 -1094h7q-4 64 -6.5 119.5t-4 104t-1.5 88.5v782h208v-1462zM296 1576q4 48 13 96.5t28.5 88.5t51.5 64t80 24q39 0 74.5 -16.5t69 -39t65 -39t62.5 -16.5q30 0 45 30.5t23 82.5h122
q-5 -133 -53 -203t-119 -70q-38 0 -75.5 17t-72.5 39t-65.5 39t-54.5 17q-25 0 -45 -28.5t-28 -85.5h-121z" />
    <glyph glyph-name="Ograve" unicode="&#xd2;" horiz-adv-x="1166" 
d="M1071 733q0 -165 -28.5 -303t-87 -239t-151 -156t-219.5 -55q-129 0 -222 56t-152 157.5t-87 239.5t-28 302q0 248 55 414.5t164 250.5t270 84q170 0 277.5 -95t158 -264.5t50.5 -391.5zM324 733q0 -183 29.5 -307t87.5 -187t143 -63q86 0 143 61.5t86 185t29 310.5
q0 279 -64.5 418t-192.5 139q-87 0 -145 -63t-87 -186.5t-29 -307.5zM515 1904q21 -46 52.5 -103t65.5 -110.5t60 -89.5v-25h-145q-29 26 -68 65t-79.5 84t-75 87t-55.5 73v19h245z" />
    <glyph glyph-name="Oacute" unicode="&#xd3;" horiz-adv-x="1166" 
d="M1071 733q0 -165 -28.5 -303t-87 -239t-151 -156t-219.5 -55q-129 0 -222 56t-152 157.5t-87 239.5t-28 302q0 248 55 414.5t164 250.5t270 84q170 0 277.5 -95t158 -264.5t50.5 -391.5zM324 733q0 -183 29.5 -307t87.5 -187t143 -63q86 0 143 61.5t86 185t29 310.5
q0 279 -64.5 418t-192.5 139q-87 0 -145 -63t-87 -186.5t-29 -307.5zM895 1904v-19q-20 -31 -53 -71t-72.5 -83.5t-79 -83.5t-73.5 -71h-144v25q38 55 70 106.5t59 101t49 95.5h244z" />
    <glyph glyph-name="Ocircumflex" unicode="&#xd4;" horiz-adv-x="1166" 
d="M1071 733q0 -165 -28.5 -303t-87 -239t-151 -156t-219.5 -55q-129 0 -222 56t-152 157.5t-87 239.5t-28 302q0 248 55 414.5t164 250.5t270 84q170 0 277.5 -95t158 -264.5t50.5 -391.5zM324 733q0 -183 29.5 -307t87.5 -187t143 -63q86 0 143 61.5t86 185t29 310.5
q0 279 -64.5 418t-192.5 139q-87 0 -145 -63t-87 -186.5t-29 -307.5zM682 1904q22 -46 53.5 -98.5t67 -106t70.5 -99.5v-24h-123q-39 36 -80 83t-86 100q-45 -53 -88 -102t-77 -81h-124v24q34 44 70.5 99t68.5 109t52 96h196z" />
    <glyph glyph-name="Otilde" unicode="&#xd5;" horiz-adv-x="1166" 
d="M1071 733q0 -165 -28.5 -303t-87 -239t-151 -156t-219.5 -55q-129 0 -222 56t-152 157.5t-87 239.5t-28 302q0 248 55 414.5t164 250.5t270 84q170 0 277.5 -95t158 -264.5t50.5 -391.5zM324 733q0 -183 29.5 -307t87.5 -187t143 -63q86 0 143 61.5t86 185t29 310.5
q0 279 -64.5 418t-192.5 139q-87 0 -145 -63t-87 -186.5t-29 -307.5zM272 1576q4 48 13 96.5t28.5 88.5t51.5 64t80 24q39 0 74.5 -16.5t69 -39t65 -39t62.5 -16.5q30 0 45 30.5t23 82.5h122q-5 -133 -53 -203t-119 -70q-38 0 -75.5 17t-72.5 39t-65.5 39t-54.5 17
q-25 0 -45 -28.5t-28 -85.5h-121z" />
    <glyph glyph-name="Odieresis" unicode="&#xd6;" horiz-adv-x="1166" 
d="M1071 733q0 -165 -28.5 -303t-87 -239t-151 -156t-219.5 -55q-129 0 -222 56t-152 157.5t-87 239.5t-28 302q0 248 55 414.5t164 250.5t270 84q170 0 277.5 -95t158 -264.5t50.5 -391.5zM324 733q0 -183 29.5 -307t87.5 -187t143 -63q86 0 143 61.5t86 185t29 310.5
q0 279 -64.5 418t-192.5 139q-87 0 -145 -63t-87 -186.5t-29 -307.5zM309 1716q0 59 29 88.5t75 29.5t74.5 -30.5t28.5 -87.5t-28.5 -87.5t-74.5 -30.5t-75 30t-29 88zM659 1716q0 59 29 88.5t75 29.5q47 0 76 -30.5t29 -87.5t-29 -87.5t-76 -30.5t-75.5 30.5t-28.5 87.5z
" />
    <glyph glyph-name="multiply" unicode="&#xd7;" horiz-adv-x="922" 
d="M731 1116l122 -118l-273 -275l268 -271l-119 -119l-271 270l-272 -271l-116 121l268 270l-268 269l118 121l270 -268z" />
    <glyph glyph-name="Oslash" unicode="&#xd8;" horiz-adv-x="1169" 
d="M1074 733q0 -181 -31 -321t-92 -236t-152 -146t-212 -50q-75 0 -138.5 21.5t-115.5 62.5l-80 -166l-121 54l104 208q-74 109 -106 252t-32 323q0 248 55.5 414.5t164.5 250.5t269 84q77 0 143 -23.5t118 -70.5l79 155l119 -56l-100 -198q65 -95 96.5 -235t31.5 -323z
M851 733q0 91 -8 169t-24 139l-395 -788q30 -42 71.5 -62.5t90.5 -20.5q88 0 147 63t88.5 188t29.5 312zM323 733q0 -103 9.5 -185.5t28.5 -145.5l399 795q-32 50 -74.5 73.5t-97.5 23.5q-88 0 -147.5 -63.5t-88.5 -188t-29 -309.5z" />
    <glyph glyph-name="Ugrave" unicode="&#xd9;" horiz-adv-x="1106" 
d="M976 1462v-993q0 -167 -48.5 -275.5t-142.5 -161t-232 -52.5q-205 0 -313.5 119.5t-108.5 366.5v996h219v-992q0 -157 53 -225.5t151 -68.5q67 0 112 29.5t67.5 94.5t22.5 172v990h220zM494 1904q21 -46 52.5 -103t65.5 -110.5t60 -89.5v-25h-145q-29 26 -68 65t-79.5 84
t-75 87t-55.5 73v19h245z" />
    <glyph glyph-name="Uacute" unicode="&#xda;" horiz-adv-x="1106" 
d="M976 1462v-993q0 -167 -48.5 -275.5t-142.5 -161t-232 -52.5q-205 0 -313.5 119.5t-108.5 366.5v996h219v-992q0 -157 53 -225.5t151 -68.5q67 0 112 29.5t67.5 94.5t22.5 172v990h220zM869 1904v-19q-20 -31 -53 -71t-72.5 -83.5t-79 -83.5t-73.5 -71h-144v25
q38 55 70 106.5t59 101t49 95.5h244z" />
    <glyph glyph-name="Ucircumflex" unicode="&#xdb;" horiz-adv-x="1106" 
d="M976 1462v-993q0 -167 -48.5 -275.5t-142.5 -161t-232 -52.5q-205 0 -313.5 119.5t-108.5 366.5v996h219v-992q0 -157 53 -225.5t151 -68.5q67 0 112 29.5t67.5 94.5t22.5 172v990h220zM651 1904q22 -46 53.5 -98.5t67 -106t70.5 -99.5v-24h-123q-39 36 -80 83t-86 100
q-45 -53 -88 -102t-77 -81h-124v24q34 44 70.5 99t68.5 109t52 96h196z" />
    <glyph glyph-name="Udieresis" unicode="&#xdc;" horiz-adv-x="1106" 
d="M976 1462v-993q0 -167 -48.5 -275.5t-142.5 -161t-232 -52.5q-205 0 -313.5 119.5t-108.5 366.5v996h219v-992q0 -157 53 -225.5t151 -68.5q67 0 112 29.5t67.5 94.5t22.5 172v990h220zM275 1715q0 59 29 88.5t75 29.5t74.5 -30.5t28.5 -87.5t-28.5 -87.5t-74.5 -30.5
t-75 30t-29 88zM625 1715q0 59 29 88.5t75 29.5q47 0 76 -30.5t29 -87.5t-29 -87.5t-76 -30.5t-75.5 30.5t-28.5 87.5z" />
    <glyph glyph-name="Yacute" unicode="&#xdd;" horiz-adv-x="879" 
d="M441 814l210 648h228l-330 -896v-566h-219v560l-330 902h229zM740 1904v-19q-20 -31 -53 -71t-72.5 -83.5t-79 -83.5t-73.5 -71h-144v25q38 55 70 106.5t59 101t49 95.5h244z" />
    <glyph glyph-name="Thorn" unicode="&#xde;" horiz-adv-x="929" 
d="M878 784q0 -108 -25 -196.5t-77 -152t-132.5 -97.5t-191.5 -34h-91v-304h-220v1462h220v-242h95q215 0 318.5 -109t103.5 -327zM361 495h70q81 0 131.5 30t73.5 92.5t23 160.5q0 131 -51 191t-161 60h-86v-534z" />
    <glyph glyph-name="germandbls" unicode="&#xdf;" horiz-adv-x="1008" 
d="M852 1246q0 -67 -19.5 -116.5t-48 -88t-57 -70.5t-48 -64.5t-19.5 -71.5q0 -29 12.5 -57t37 -57.5t61.5 -65.5q62 -59 101 -109t57.5 -103t18.5 -122q0 -108 -36.5 -184t-107 -116.5t-172.5 -40.5q-55 0 -112 13t-105 43v201q30 -21 61 -37.5t64 -25.5t67 -9
q64 0 96 37.5t32 102.5q0 39 -12.5 71.5t-41 67t-77.5 79.5q-62 56 -95.5 107t-46 99t-12.5 94q0 57 19.5 99t48 76.5t56.5 68t47.5 74t19.5 95.5q0 69 -35 109.5t-107 40.5q-53 0 -90 -28.5t-55.5 -84t-18.5 -136.5v-1137h-210v1152q0 129 45 222t129.5 143t202.5 50
q107 0 185.5 -38t121.5 -109.5t43 -173.5z" />
    <glyph glyph-name="agrave" unicode="&#xe0;" horiz-adv-x="896" 
d="M466 1130q158 0 233 -99t75 -290v-741h-156l-33 153h-5q-30 -56 -67 -95t-84.5 -58.5t-110.5 -19.5q-89 0 -145 47.5t-82 124.5t-26 164q0 169 95.5 259t271.5 98l132 7v60q0 112 -32 165t-105 53q-47 0 -100.5 -17.5t-117.5 -54.5l-61 157q69 43 149.5 65t168.5 22z
M565 534l-88 -5q-101 -6 -150 -57t-49 -148q0 -89 31.5 -132t88.5 -43q77 0 122 74.5t45 203.5v107zM433 1569q21 -46 52.5 -103t65.5 -110.5t60 -89.5v-25h-145q-29 26 -68 65t-79.5 84t-75 87t-55.5 73v19h245z" />
    <glyph glyph-name="aacute" unicode="&#xe1;" horiz-adv-x="896" 
d="M466 1130q158 0 233 -99t75 -290v-741h-156l-33 153h-5q-30 -56 -67 -95t-84.5 -58.5t-110.5 -19.5q-89 0 -145 47.5t-82 124.5t-26 164q0 169 95.5 259t271.5 98l132 7v60q0 112 -32 165t-105 53q-47 0 -100.5 -17.5t-117.5 -54.5l-61 157q69 43 149.5 65t168.5 22z
M565 534l-88 -5q-101 -6 -150 -57t-49 -148q0 -89 31.5 -132t88.5 -43q77 0 122 74.5t45 203.5v107zM741 1569v-19q-20 -31 -53 -71t-72.5 -83.5t-79 -83.5t-73.5 -71h-144v25q38 55 70 106.5t59 101t49 95.5h244z" />
    <glyph glyph-name="acircumflex" unicode="&#xe2;" horiz-adv-x="896" 
d="M466 1130q158 0 233 -99t75 -290v-741h-156l-33 153h-5q-30 -56 -67 -95t-84.5 -58.5t-110.5 -19.5q-89 0 -145 47.5t-82 124.5t-26 164q0 169 95.5 259t271.5 98l132 7v60q0 112 -32 165t-105 53q-47 0 -100.5 -17.5t-117.5 -54.5l-61 157q69 43 149.5 65t168.5 22z
M565 534l-88 -5q-101 -6 -150 -57t-49 -148q0 -89 31.5 -132t88.5 -43q77 0 122 74.5t45 203.5v107zM560 1569q22 -46 53.5 -98.5t67 -106t70.5 -99.5v-24h-123q-39 36 -80 83t-86 100q-45 -53 -88 -102t-77 -81h-124v24q34 44 70.5 99t68.5 109t52 96h196z" />
    <glyph glyph-name="atilde" unicode="&#xe3;" horiz-adv-x="896" 
d="M466 1130q158 0 233 -99t75 -290v-741h-156l-33 153h-5q-30 -56 -67 -95t-84.5 -58.5t-110.5 -19.5q-89 0 -145 47.5t-82 124.5t-26 164q0 169 95.5 259t271.5 98l132 7v60q0 112 -32 165t-105 53q-47 0 -100.5 -17.5t-117.5 -54.5l-61 157q69 43 149.5 65t168.5 22z
M565 534l-88 -5q-101 -6 -150 -57t-49 -148q0 -89 31.5 -132t88.5 -43q77 0 122 74.5t45 203.5v107zM145 1242q4 48 13 96.5t28.5 88.5t51.5 64t80 24q39 0 74.5 -16.5t69 -39t65 -39t62.5 -16.5q30 0 45 30.5t23 82.5h122q-5 -133 -53 -203t-119 -70q-38 0 -75.5 17
t-72.5 39t-65.5 39t-54.5 17q-25 0 -45 -28.5t-28 -85.5h-121z" />
    <glyph glyph-name="adieresis" unicode="&#xe4;" horiz-adv-x="896" 
d="M466 1130q158 0 233 -99t75 -290v-741h-156l-33 153h-5q-30 -56 -67 -95t-84.5 -58.5t-110.5 -19.5q-89 0 -145 47.5t-82 124.5t-26 164q0 169 95.5 259t271.5 98l132 7v60q0 112 -32 165t-105 53q-47 0 -100.5 -17.5t-117.5 -54.5l-61 157q69 43 149.5 65t168.5 22z
M565 534l-88 -5q-101 -6 -150 -57t-49 -148q0 -89 31.5 -132t88.5 -43q77 0 122 74.5t45 203.5v107zM181 1381q0 59 29 88.5t75 29.5t74.5 -30.5t28.5 -87.5t-28.5 -87.5t-74.5 -30.5t-75 30t-29 88zM531 1381q0 59 29 88.5t75 29.5q47 0 76 -30.5t29 -87.5t-29 -87.5
t-76 -30.5t-75.5 30.5t-28.5 87.5z" />
    <glyph glyph-name="aring" unicode="&#xe5;" horiz-adv-x="896" 
d="M466 1130q158 0 233 -99t75 -290v-741h-156l-33 153h-5q-30 -56 -67 -95t-84.5 -58.5t-110.5 -19.5q-89 0 -145 47.5t-82 124.5t-26 164q0 169 95.5 259t271.5 98l132 7v60q0 112 -32 165t-105 53q-47 0 -100.5 -17.5t-117.5 -54.5l-61 157q69 43 149.5 65t168.5 22z
M565 534l-88 -5q-101 -6 -150 -57t-49 -148q0 -89 31.5 -132t88.5 -43q77 0 122 74.5t45 203.5v107zM461 1245q-102 0 -163 60.5t-61 157.5q0 98 61 158.5t163 60.5q100 0 163 -60t63 -156q0 -97 -61.5 -159t-164.5 -62zM464 1364q44 0 73 27.5t29 72.5t-27.5 73.5
t-74.5 28.5q-46 0 -75 -28.5t-29 -73.5t26 -72.5t78 -27.5z" />
    <glyph glyph-name="ae" unicode="&#xe6;" horiz-adv-x="1371" 
d="M938 1128q120 0 199 -63.5t118 -175t39 -256.5v-130h-528q3 -177 59 -264t168 -87q65 0 128 19t127 60v-178q-60 -37 -128 -55t-148 -18q-74 0 -138.5 24t-115 71.5t-80.5 116.5q-37 -73 -82.5 -119.5t-100.5 -69.5t-121 -23q-94 0 -153.5 47.5t-87.5 124.5t-28 165
q0 113 43 190t125.5 119t199.5 47l131 6v63q0 108 -33.5 162t-102.5 54q-47 0 -101 -17.5t-117 -54.5l-62 158q63 39 138 62.5t159 23.5q90 0 148.5 -35t90.5 -106q43 68 106 103.5t148 35.5zM565 534l-88 -5q-101 -6 -150 -55.5t-49 -149.5q0 -88 31 -131t89 -43
q51 0 88.5 33t58 94.5t20.5 145.5v111zM937 958q-74 0 -119.5 -71.5t-50.5 -225.5h331q0 88 -17.5 155t-53.5 104.5t-90 37.5z" />
    <glyph glyph-name="ccedilla" unicode="&#xe7;" horiz-adv-x="760" 
d="M473 -20q-131 0 -218 63t-130 189t-43 316q0 176 42.5 306.5t130.5 203t223 72.5q72 0 130 -16t109 -46l-62 -170q-41 24 -81.5 35.5t-80.5 11.5q-64 0 -108 -45t-67 -132.5t-23 -218.5q0 -128 22.5 -214t67 -129.5t110.5 -43.5q51 0 102.5 17t102.5 49v-179
q-48 -35 -109 -52t-118 -17zM656 -274q0 -104 -64.5 -161t-182.5 -57q-40 0 -73.5 4.5t-58.5 10.5v130q24 -7 48.5 -10.5t47.5 -3.5q57 0 86 24.5t29 65.5q0 48 -40.5 73.5t-111.5 32.5l70 165h115l-40 -93q56 -11 95 -35t59.5 -61t20.5 -85z" />
    <glyph glyph-name="egrave" unicode="&#xe8;" horiz-adv-x="892" 
d="M458 1128q119 0 199 -63.5t120 -175.5t40 -257v-129h-528q2 -176 58.5 -262.5t172.5 -86.5q65 0 125 18.5t127 60.5v-180q-62 -37 -131 -55t-148 -18q-146 0 -237 71.5t-132.5 199.5t-41.5 297q0 187 42 316t126 196.5t208 67.5zM461 960q-77 0 -121 -72t-49 -227h331
q0 86 -18 153.5t-53.5 106.5t-89.5 39zM425 1569q21 -46 52.5 -103t65.5 -110.5t60 -89.5v-25h-145q-29 26 -68 65t-79.5 84t-75 87t-55.5 73v19h245z" />
    <glyph glyph-name="eacute" unicode="&#xe9;" horiz-adv-x="892" 
d="M458 1128q119 0 199 -63.5t120 -175.5t40 -257v-129h-528q2 -176 58.5 -262.5t172.5 -86.5q65 0 125 18.5t127 60.5v-180q-62 -37 -131 -55t-148 -18q-146 0 -237 71.5t-132.5 199.5t-41.5 297q0 187 42 316t126 196.5t208 67.5zM461 960q-77 0 -121 -72t-49 -227h331
q0 86 -18 153.5t-53.5 106.5t-89.5 39zM754 1569v-19q-20 -31 -53 -71t-72.5 -83.5t-79 -83.5t-73.5 -71h-144v25q38 55 70 106.5t59 101t49 95.5h244z" />
    <glyph glyph-name="ecircumflex" unicode="&#xea;" horiz-adv-x="892" 
d="M458 1128q119 0 199 -63.5t120 -175.5t40 -257v-129h-528q2 -176 58.5 -262.5t172.5 -86.5q65 0 125 18.5t127 60.5v-180q-62 -37 -131 -55t-148 -18q-146 0 -237 71.5t-132.5 199.5t-41.5 297q0 187 42 316t126 196.5t208 67.5zM461 960q-77 0 -121 -72t-49 -227h331
q0 86 -18 153.5t-53.5 106.5t-89.5 39zM552 1569q22 -46 53.5 -98.5t67 -106t70.5 -99.5v-24h-123q-39 36 -80 83t-86 100q-45 -53 -88 -102t-77 -81h-124v24q34 44 70.5 99t68.5 109t52 96h196z" />
    <glyph glyph-name="edieresis" unicode="&#xeb;" horiz-adv-x="892" 
d="M458 1128q119 0 199 -63.5t120 -175.5t40 -257v-129h-528q2 -176 58.5 -262.5t172.5 -86.5q65 0 125 18.5t127 60.5v-180q-62 -37 -131 -55t-148 -18q-146 0 -237 71.5t-132.5 199.5t-41.5 297q0 187 42 316t126 196.5t208 67.5zM461 960q-77 0 -121 -72t-49 -227h331
q0 86 -18 153.5t-53.5 106.5t-89.5 39zM174 1381q0 59 29 88.5t75 29.5t74.5 -30.5t28.5 -87.5t-28.5 -87.5t-74.5 -30.5t-75 30t-29 88zM524 1381q0 59 29 88.5t75 29.5q47 0 76 -30.5t29 -87.5t-29 -87.5t-76 -30.5t-75.5 30.5t-28.5 87.5z" />
    <glyph glyph-name="igrave" unicode="&#xec;" horiz-adv-x="461" 
d="M336 0h-210v1109h210v-1109zM200 1569q21 -46 52.5 -103t65.5 -110.5t60 -89.5v-25h-145q-29 26 -68 65t-79.5 84t-75 87t-55.5 73v19h245z" />
    <glyph glyph-name="iacute" unicode="&#xed;" horiz-adv-x="461" 
d="M336 0h-210v1109h210v-1109zM529 1569v-19q-20 -31 -53 -71t-72.5 -83.5t-79 -83.5t-73.5 -71h-144v25q38 55 70 106.5t59 101t49 95.5h244z" />
    <glyph glyph-name="icircumflex" unicode="&#xee;" horiz-adv-x="461" 
d="M336 0h-210v1109h210v-1109zM327 1569q22 -46 53.5 -98.5t67 -106t70.5 -99.5v-24h-123q-39 36 -80 83t-86 100q-45 -53 -88 -102t-77 -81h-124v24q34 44 70.5 99t68.5 109t52 96h196z" />
    <glyph glyph-name="idieresis" unicode="&#xef;" horiz-adv-x="461" 
d="M336 0h-210v1109h210v-1109zM-51 1381q0 59 29 88.5t75 29.5t74.5 -30.5t28.5 -87.5t-28.5 -87.5t-74.5 -30.5t-75 30t-29 88zM299 1381q0 59 29 88.5t75 29.5q47 0 76 -30.5t29 -87.5t-29 -87.5t-76 -30.5t-75.5 30.5t-28.5 87.5z" />
    <glyph glyph-name="eth" unicode="&#xf0;" horiz-adv-x="953" 
d="M354 1565q38 -22 77 -49.5t79 -61.5l158 111l82 -109l-144 -97q86 -99 145 -219t90.5 -268t31.5 -330q0 -181 -46 -306.5t-134.5 -190.5t-217.5 -65q-126 0 -214 66.5t-134 180.5t-46 257q0 159 47 270.5t128.5 170t184.5 58.5q38 0 69.5 -8.5t58 -24.5t46.5 -41l6 3
q-19 92 -59.5 175.5t-100.5 158.5l-146 -101l-80 106l140 98q-28 28 -57 51.5t-58 44.5zM480 802q-61 0 -103 -36.5t-63 -108t-21 -179.5q0 -93 19.5 -165t61 -113t105.5 -41q97 0 139 83.5t42 247.5q0 69 -11 126t-33.5 98.5t-56 64.5t-79.5 23z" />
    <glyph glyph-name="ntilde" unicode="&#xf1;" horiz-adv-x="975" 
d="M574 1130q136 0 207.5 -97t71.5 -288v-745h-210v691q0 125 -29 188.5t-100 63.5q-96 0 -137.5 -89t-41.5 -295v-559h-210v1109h167l22 -151h14q24 54 60 92.5t83 59t103 20.5zM187 1242q4 48 13 96.5t28.5 88.5t51.5 64t80 24q39 0 74.5 -16.5t69 -39t65 -39t62.5 -16.5
q30 0 45 30.5t23 82.5h122q-5 -133 -53 -203t-119 -70q-38 0 -75.5 17t-72.5 39t-65.5 39t-54.5 17q-25 0 -45 -28.5t-28 -85.5h-121z" />
    <glyph glyph-name="ograve" unicode="&#xf2;" horiz-adv-x="951" 
d="M871 557q0 -124 -23 -229t-70.5 -183t-123 -121.5t-180.5 -43.5q-100 0 -174 43t-122.5 120.5t-72.5 183t-24 230.5q0 175 41.5 303.5t129.5 199t225 70.5q123 0 211.5 -66t135.5 -193.5t47 -313.5zM294 555q0 -130 19.5 -218t60 -132.5t103.5 -44.5t102.5 44t58 132
t18.5 221q0 130 -18.5 217.5t-58 131t-103.5 43.5q-96 0 -139 -97.5t-43 -296.5zM446 1569q21 -46 52.5 -103t65.5 -110.5t60 -89.5v-25h-145q-29 26 -68 65t-79.5 84t-75 87t-55.5 73v19h245z" />
    <glyph glyph-name="oacute" unicode="&#xf3;" horiz-adv-x="951" 
d="M871 557q0 -124 -23 -229t-70.5 -183t-123 -121.5t-180.5 -43.5q-100 0 -174 43t-122.5 120.5t-72.5 183t-24 230.5q0 175 41.5 303.5t129.5 199t225 70.5q123 0 211.5 -66t135.5 -193.5t47 -313.5zM294 555q0 -130 19.5 -218t60 -132.5t103.5 -44.5t102.5 44t58 132
t18.5 221q0 130 -18.5 217.5t-58 131t-103.5 43.5q-96 0 -139 -97.5t-43 -296.5zM773 1569v-19q-20 -31 -53 -71t-72.5 -83.5t-79 -83.5t-73.5 -71h-144v25q38 55 70 106.5t59 101t49 95.5h244z" />
    <glyph glyph-name="ocircumflex" unicode="&#xf4;" horiz-adv-x="951" 
d="M871 557q0 -124 -23 -229t-70.5 -183t-123 -121.5t-180.5 -43.5q-100 0 -174 43t-122.5 120.5t-72.5 183t-24 230.5q0 175 41.5 303.5t129.5 199t225 70.5q123 0 211.5 -66t135.5 -193.5t47 -313.5zM294 555q0 -130 19.5 -218t60 -132.5t103.5 -44.5t102.5 44t58 132
t18.5 221q0 130 -18.5 217.5t-58 131t-103.5 43.5q-96 0 -139 -97.5t-43 -296.5zM573 1569q22 -46 53.5 -98.5t67 -106t70.5 -99.5v-24h-123q-39 36 -80 83t-86 100q-45 -53 -88 -102t-77 -81h-124v24q34 44 70.5 99t68.5 109t52 96h196z" />
    <glyph glyph-name="otilde" unicode="&#xf5;" horiz-adv-x="951" 
d="M871 557q0 -124 -23 -229t-70.5 -183t-123 -121.5t-180.5 -43.5q-100 0 -174 43t-122.5 120.5t-72.5 183t-24 230.5q0 175 41.5 303.5t129.5 199t225 70.5q123 0 211.5 -66t135.5 -193.5t47 -313.5zM294 555q0 -130 19.5 -218t60 -132.5t103.5 -44.5t102.5 44t58 132
t18.5 221q0 130 -18.5 217.5t-58 131t-103.5 43.5q-96 0 -139 -97.5t-43 -296.5zM158 1242q4 48 13 96.5t28.5 88.5t51.5 64t80 24q39 0 74.5 -16.5t69 -39t65 -39t62.5 -16.5q30 0 45 30.5t23 82.5h122q-5 -133 -53 -203t-119 -70q-38 0 -75.5 17t-72.5 39t-65.5 39
t-54.5 17q-25 0 -45 -28.5t-28 -85.5h-121z" />
    <glyph glyph-name="odieresis" unicode="&#xf6;" horiz-adv-x="951" 
d="M871 557q0 -124 -23 -229t-70.5 -183t-123 -121.5t-180.5 -43.5q-100 0 -174 43t-122.5 120.5t-72.5 183t-24 230.5q0 175 41.5 303.5t129.5 199t225 70.5q123 0 211.5 -66t135.5 -193.5t47 -313.5zM294 555q0 -130 19.5 -218t60 -132.5t103.5 -44.5t102.5 44t58 132
t18.5 221q0 130 -18.5 217.5t-58 131t-103.5 43.5q-96 0 -139 -97.5t-43 -296.5zM195 1381q0 59 29 88.5t75 29.5t74.5 -30.5t28.5 -87.5t-28.5 -87.5t-74.5 -30.5t-75 30t-29 88zM545 1381q0 59 29 88.5t75 29.5q47 0 76 -30.5t29 -87.5t-29 -87.5t-76 -30.5t-75.5 30.5
t-28.5 87.5z" />
    <glyph glyph-name="divide" unicode="&#xf7;" horiz-adv-x="922" 
d="M65 636v174h790v-174h-790zM462 206q-57 0 -88.5 35.5t-31.5 103.5t30.5 103t89.5 35q57 0 86.5 -35t29.5 -103q0 -69 -31.5 -104t-84.5 -35zM462 961q-57 0 -88.5 35.5t-31.5 102.5q0 68 30.5 103.5t89.5 35.5q57 0 86.5 -35.5t29.5 -103.5t-31.5 -103t-84.5 -35z" />
    <glyph glyph-name="oslash" unicode="&#xf8;" horiz-adv-x="954" 
d="M873 557q0 -183 -46.5 -312t-135 -197t-215.5 -68q-53 0 -99 14t-85 41l-81 -166l-114 55l99 198q-59 84 -86 191.5t-27 243.5q0 279 102 426t295 147q54 0 100.5 -15.5t86.5 -47.5l71 140l114 -54l-86 -175q53 -75 80 -182t27 -239zM289 555q0 -68 5.5 -123t16.5 -96
l284 566q-22 28 -51 42t-65 14q-101 0 -145.5 -100.5t-44.5 -302.5zM669 557q0 63 -5.5 114t-13.5 90l-281 -562q21 -24 48.5 -36.5t59.5 -12.5q68 0 110 45.5t62 136t20 225.5z" />
    <glyph glyph-name="ugrave" unicode="&#xf9;" horiz-adv-x="975" 
d="M850 1109v-1109h-166l-23 150h-13q-24 -54 -59.5 -92t-82 -58t-103.5 -20q-97 0 -159.5 48.5t-92 139t-29.5 215.5v726h210v-671q0 -137 29.5 -203.5t93.5 -66.5q72 0 112 40.5t56.5 121.5t16.5 200v579h210zM460 1569q21 -46 52.5 -103t65.5 -110.5t60 -89.5v-25h-145
q-29 26 -68 65t-79.5 84t-75 87t-55.5 73v19h245z" />
    <glyph glyph-name="uacute" unicode="&#xfa;" horiz-adv-x="975" 
d="M850 1109v-1109h-166l-23 150h-13q-24 -54 -59.5 -92t-82 -58t-103.5 -20q-97 0 -159.5 48.5t-92 139t-29.5 215.5v726h210v-671q0 -137 29.5 -203.5t93.5 -66.5q72 0 112 40.5t56.5 121.5t16.5 200v579h210zM789 1569v-19q-20 -31 -53 -71t-72.5 -83.5t-79 -83.5
t-73.5 -71h-144v25q38 55 70 106.5t59 101t49 95.5h244z" />
    <glyph glyph-name="ucircumflex" unicode="&#xfb;" horiz-adv-x="975" 
d="M850 1109v-1109h-166l-23 150h-13q-24 -54 -59.5 -92t-82 -58t-103.5 -20q-97 0 -159.5 48.5t-92 139t-29.5 215.5v726h210v-671q0 -137 29.5 -203.5t93.5 -66.5q72 0 112 40.5t56.5 121.5t16.5 200v579h210zM587 1569q22 -46 53.5 -98.5t67 -106t70.5 -99.5v-24h-123
q-39 36 -80 83t-86 100q-45 -53 -88 -102t-77 -81h-124v24q34 44 70.5 99t68.5 109t52 96h196z" />
    <glyph glyph-name="udieresis" unicode="&#xfc;" horiz-adv-x="975" 
d="M850 1109v-1109h-166l-23 150h-13q-24 -54 -59.5 -92t-82 -58t-103.5 -20q-97 0 -159.5 48.5t-92 139t-29.5 215.5v726h210v-671q0 -137 29.5 -203.5t93.5 -66.5q72 0 112 40.5t56.5 121.5t16.5 200v579h210zM208 1381q0 59 29 88.5t75 29.5t74.5 -30.5t28.5 -87.5
t-28.5 -87.5t-74.5 -30.5t-75 30t-29 88zM558 1381q0 59 29 88.5t75 29.5q47 0 76 -30.5t29 -87.5t-29 -87.5t-76 -30.5t-75.5 30.5t-28.5 87.5z" />
    <glyph glyph-name="yacute" unicode="&#xfd;" horiz-adv-x="828" 
d="M9 1109h219l143 -592q9 -39 17.5 -78t15 -76t10.5 -73h8q6 50 17 105.5t27 120.5l137 593h217l-330 -1251q-33 -124 -77.5 -201t-105 -113t-142.5 -36q-29 0 -56.5 5t-56.5 12v186q20 -6 40.5 -10t39.5 -4q39 0 65.5 17.5t47 61.5t41.5 124l28 110zM713 1569v-19
q-20 -31 -53 -71t-72.5 -83.5t-79 -83.5t-73.5 -71h-144v25q38 55 70 106.5t59 101t49 95.5h244z" />
    <glyph glyph-name="thorn" unicode="&#xfe;" horiz-adv-x="981" 
d="M901 554q0 -181 -37.5 -309.5t-108.5 -196.5t-171 -68q-54 0 -101 20t-84.5 58.5t-63.5 92.5h-8q3 -35 5 -65.5t3.5 -56t1.5 -46.5v-474h-212v2047h210v-412q0 -48 -1.5 -95t-6.5 -94h7q32 64 68 102t79.5 55.5t94.5 17.5q158 0 241.5 -149t83.5 -427zM688 552
q0 205 -41 301t-129 96q-94 0 -138.5 -87t-44.5 -275v-54q0 -191 45.5 -280.5t138.5 -89.5q64 0 101 50t52.5 138t15.5 201z" />
    <glyph glyph-name="ydieresis" unicode="&#xff;" horiz-adv-x="828" 
d="M9 1109h219l143 -592q9 -39 17.5 -78t15 -76t10.5 -73h8q6 50 17 105.5t27 120.5l137 593h217l-330 -1251q-33 -124 -77.5 -201t-105 -113t-142.5 -36q-29 0 -56.5 5t-56.5 12v186q20 -6 40.5 -10t39.5 -4q39 0 65.5 17.5t47 61.5t41.5 124l28 110zM134 1381
q0 59 29 88.5t75 29.5t74.5 -30.5t28.5 -87.5t-28.5 -87.5t-74.5 -30.5t-75 30t-29 88zM484 1381q0 59 29 88.5t75 29.5q47 0 76 -30.5t29 -87.5t-29 -87.5t-76 -30.5t-75.5 30.5t-28.5 87.5z" />
    <glyph glyph-name="Amacron" unicode="&#x100;" horiz-adv-x="992" 
d="M758 0l-93 411h-336l-93 -411h-236l354 1462h278l360 -1462h-234zM628 607l-95 441q-8 43 -15 83.5t-13 78.5t-11 73q-3 -34 -8.5 -72t-13 -78t-16.5 -82l-93 -444h265zM759 1771v-156h-527v156h527z" />
    <glyph glyph-name="amacron" unicode="&#x101;" horiz-adv-x="896" 
d="M466 1130q158 0 233 -99t75 -290v-741h-156l-33 153h-5q-30 -56 -67 -95t-84.5 -58.5t-110.5 -19.5q-89 0 -145 47.5t-82 124.5t-26 164q0 169 95.5 259t271.5 98l132 7v60q0 112 -32 165t-105 53q-47 0 -100.5 -17.5t-117.5 -54.5l-61 157q69 43 149.5 65t168.5 22z
M565 534l-88 -5q-101 -6 -150 -57t-49 -148q0 -89 31.5 -132t88.5 -43q77 0 122 74.5t45 203.5v107zM726 1418v-156h-527v156h527z" />
    <glyph glyph-name="Abreve" unicode="&#x102;" horiz-adv-x="992" 
d="M758 0l-93 411h-336l-93 -411h-236l354 1462h278l360 -1462h-234zM628 607l-95 441q-8 43 -15 83.5t-13 78.5t-11 73q-3 -34 -8.5 -72t-13 -78t-16.5 -82l-93 -444h265zM764 1897q0 -93 -35.5 -160t-97 -103.5t-141.5 -36.5q-119 0 -191 75.5t-76 224.5h132
q4 -49 20.5 -81.5t46 -49t71.5 -16.5t72 15.5t47.5 48t21.5 83.5h130z" />
    <glyph glyph-name="abreve" unicode="&#x103;" horiz-adv-x="896" 
d="M466 1130q158 0 233 -99t75 -290v-741h-156l-33 153h-5q-30 -56 -67 -95t-84.5 -58.5t-110.5 -19.5q-89 0 -145 47.5t-82 124.5t-26 164q0 169 95.5 259t271.5 98l132 7v60q0 112 -32 165t-105 53q-47 0 -100.5 -17.5t-117.5 -54.5l-61 157q69 43 149.5 65t168.5 22z
M565 534l-88 -5q-101 -6 -150 -57t-49 -148q0 -89 31.5 -132t88.5 -43q77 0 122 74.5t45 203.5v107zM731 1544q0 -93 -35.5 -160t-97 -103.5t-141.5 -36.5q-119 0 -191 75.5t-76 224.5h132q4 -49 20.5 -81.5t46 -49t71.5 -16.5t72 15.5t47.5 48t21.5 83.5h130z" />
    <glyph glyph-name="Aogonek" unicode="&#x104;" horiz-adv-x="992" 
d="M758 0l-93 411h-336l-93 -411h-236l354 1462h278l360 -1462h-234zM628 607l-95 441q-8 43 -15 83.5t-13 78.5t-11 73q-3 -34 -8.5 -72t-13 -78t-16.5 -82l-93 -444h265zM789 -226q0 -45 23 -70.5t66 -25.5q24 0 40.5 4.5t28.5 10.5v-140q-19 -8 -47.5 -14.5t-65.5 -6.5
q-106 0 -159.5 52.5t-53.5 147.5q0 50 19 101.5t57 101t95 93.5l115 -28q-68 -69 -93 -120t-25 -106z" />
    <glyph glyph-name="aogonek" unicode="&#x105;" horiz-adv-x="896" 
d="M466 1130q158 0 233 -99t75 -290v-741h-156l-33 153h-5q-30 -56 -67 -95t-84.5 -58.5t-110.5 -19.5q-89 0 -145 47.5t-82 124.5t-26 164q0 169 95.5 259t271.5 98l132 7v60q0 112 -32 165t-105 53q-47 0 -100.5 -17.5t-117.5 -54.5l-61 157q69 43 149.5 65t168.5 22z
M565 534l-88 -5q-101 -6 -150 -57t-49 -148q0 -89 31.5 -132t88.5 -43q77 0 122 74.5t45 203.5v107zM637 -226q0 -45 23 -70.5t66 -25.5q24 0 40.5 4.5t28.5 10.5v-140q-19 -8 -47.5 -14.5t-65.5 -6.5q-106 0 -159.5 52.5t-53.5 147.5q0 50 19 101.5t57 101t95 93.5l115 -28
q-68 -69 -93 -120t-25 -106z" />
    <glyph glyph-name="Cacute" unicode="&#x106;" horiz-adv-x="948" 
d="M615 1291q-76 0 -131 -43.5t-90.5 -121t-52.5 -179.5t-17 -218q0 -175 36 -299.5t104 -190t163 -65.5q65 0 123 19.5t111 46.5v-197q-56 -31 -121.5 -47t-142.5 -16q-157 0 -269 89t-172 257t-60 405q0 160 32 296.5t95.5 239.5t158.5 160t220 57q80 0 154 -20t143 -61
l-69 -183q-50 33 -103 52t-112 19zM877 1922v-19q-20 -31 -53 -71t-72.5 -83.5t-79 -83.5t-73.5 -71h-144v25q38 55 70 106.5t59 101t49 95.5h244z" />
    <glyph glyph-name="cacute" unicode="&#x107;" horiz-adv-x="760" 
d="M473 -20q-131 0 -218 63t-130 189t-43 316q0 176 42.5 306.5t130.5 203t223 72.5q72 0 130 -16t109 -46l-62 -170q-41 24 -81.5 35.5t-80.5 11.5q-64 0 -108 -45t-67 -132.5t-23 -218.5q0 -128 22.5 -214t67 -129.5t110.5 -43.5q51 0 102.5 17t102.5 49v-179
q-48 -35 -109 -52t-118 -17zM749 1569v-19q-20 -31 -53 -71t-72.5 -83.5t-79 -83.5t-73.5 -71h-144v25q38 55 70 106.5t59 101t49 95.5h244z" />
    <glyph glyph-name="Ccircumflex" unicode="&#x108;" horiz-adv-x="948" 
d="M615 1291q-76 0 -131 -43.5t-90.5 -121t-52.5 -179.5t-17 -218q0 -175 36 -299.5t104 -190t163 -65.5q65 0 123 19.5t111 46.5v-197q-56 -31 -121.5 -47t-142.5 -16q-157 0 -269 89t-172 257t-60 405q0 160 32 296.5t95.5 239.5t158.5 160t220 57q80 0 154 -20t143 -61
l-69 -183q-50 33 -103 52t-112 19zM675 1922q22 -46 53.5 -98.5t67 -106t70.5 -99.5v-24h-123q-39 36 -80 83t-86 100q-45 -53 -88 -102t-77 -81h-124v24q34 44 70.5 99t68.5 109t52 96h196z" />
    <glyph glyph-name="ccircumflex" unicode="&#x109;" horiz-adv-x="760" 
d="M473 -20q-131 0 -218 63t-130 189t-43 316q0 176 42.5 306.5t130.5 203t223 72.5q72 0 130 -16t109 -46l-62 -170q-41 24 -81.5 35.5t-80.5 11.5q-64 0 -108 -45t-67 -132.5t-23 -218.5q0 -128 22.5 -214t67 -129.5t110.5 -43.5q51 0 102.5 17t102.5 49v-179
q-48 -35 -109 -52t-118 -17zM548 1569q22 -46 53.5 -98.5t67 -106t70.5 -99.5v-24h-123q-39 36 -80 83t-86 100q-45 -53 -88 -102t-77 -81h-124v24q34 44 70.5 99t68.5 109t52 96h196z" />
    <glyph glyph-name="Cdot" unicode="&#x10a;" horiz-adv-x="948" 
d="M615 1291q-76 0 -131 -43.5t-90.5 -121t-52.5 -179.5t-17 -218q0 -175 36 -299.5t104 -190t163 -65.5q65 0 123 19.5t111 46.5v-197q-56 -31 -121.5 -47t-142.5 -16q-157 0 -269 89t-172 257t-60 405q0 160 32 296.5t95.5 239.5t158.5 160t220 57q80 0 154 -20t143 -61
l-69 -183q-50 33 -103 52t-112 19zM598 1887q61 0 89.5 -35t28.5 -99q0 -62 -29.5 -96.5t-88.5 -34.5q-56 0 -87.5 34.5t-31.5 96.5q0 66 29.5 100t89.5 34z" />
    <glyph glyph-name="cdot" unicode="&#x10b;" horiz-adv-x="760" 
d="M473 -20q-131 0 -218 63t-130 189t-43 316q0 176 42.5 306.5t130.5 203t223 72.5q72 0 130 -16t109 -46l-62 -170q-41 24 -81.5 35.5t-80.5 11.5q-64 0 -108 -45t-67 -132.5t-23 -218.5q0 -128 22.5 -214t67 -129.5t110.5 -43.5q51 0 102.5 17t102.5 49v-179
q-48 -35 -109 -52t-118 -17zM470 1536q61 0 89.5 -35t28.5 -99q0 -62 -29.5 -96.5t-88.5 -34.5q-56 0 -87.5 34.5t-31.5 96.5q0 66 29.5 100t89.5 34z" />
    <glyph glyph-name="Ccaron" unicode="&#x10c;" horiz-adv-x="948" 
d="M615 1291q-76 0 -131 -43.5t-90.5 -121t-52.5 -179.5t-17 -218q0 -175 36 -299.5t104 -190t163 -65.5q65 0 123 19.5t111 46.5v-197q-56 -31 -121.5 -47t-142.5 -16q-157 0 -269 89t-172 257t-60 405q0 160 32 296.5t95.5 239.5t158.5 160t220 57q80 0 154 -20t143 -61
l-69 -183q-50 33 -103 52t-112 19zM479 1594q-21 43 -53.5 97.5t-68.5 109.5t-69 97v24h124q36 -34 78.5 -82.5t85.5 -100.5q49 59 85 98.5t81 84.5h123v-24q-30 -40 -66 -94t-69.5 -109.5t-55.5 -100.5h-195z" />
    <glyph glyph-name="ccaron" unicode="&#x10d;" horiz-adv-x="760" 
d="M473 -20q-131 0 -218 63t-130 189t-43 316q0 176 42.5 306.5t130.5 203t223 72.5q72 0 130 -16t109 -46l-62 -170q-41 24 -81.5 35.5t-80.5 11.5q-64 0 -108 -45t-67 -132.5t-23 -218.5q0 -128 22.5 -214t67 -129.5t110.5 -43.5q51 0 102.5 17t102.5 49v-179
q-48 -35 -109 -52t-118 -17zM353 1241q-21 43 -53.5 97.5t-68.5 109.5t-69 97v24h124q36 -34 78.5 -82.5t85.5 -100.5q49 59 85 98.5t81 84.5h123v-24q-30 -40 -66 -94t-69.5 -109.5t-55.5 -100.5h-195z" />
    <glyph glyph-name="Dcaron" unicode="&#x10e;" horiz-adv-x="1096" 
d="M1001 754q0 -246 -62 -414t-183 -254t-299 -86h-316v1462h332q172 0 289.5 -81t178 -239t60.5 -388zM774 743q0 178 -34 295t-102 174.5t-170 57.5h-107v-1075h92q166 0 243.5 136.5t77.5 411.5zM438 1594q-21 43 -53.5 97.5t-68.5 109.5t-69 97v24h124
q36 -34 78.5 -82.5t85.5 -100.5q49 59 85 98.5t81 84.5h123v-24q-30 -40 -66 -94t-69.5 -109.5t-55.5 -100.5h-195z" />
    <glyph glyph-name="dcaron" unicode="&#x10f;" horiz-adv-x="981" 
d="M407 -20q-160 0 -243 149.5t-83 424.5q0 274 83.5 425t235.5 151q52 0 98 -19.5t83.5 -56.5t64.5 -91h8q-2 56 -4 97.5t-2 73.5v422h209v-1556h-168l-29 136h-12q-30 -51 -65 -86t-78 -52.5t-98 -17.5zM463 157q92 0 138.5 87.5t46.5 266.5v69q0 188 -44.5 276.5
t-141.5 88.5q-86 0 -127 -99.5t-41 -290.5q0 -198 42 -298t127 -100zM1190 1556v-21q-11 -46 -31.5 -103t-45.5 -111t-49 -92h-128v24q4 20 11 59t13.5 86t12 89.5t6.5 68.5h211z" />
    <glyph glyph-name="Dcroat" unicode="&#x110;" horiz-adv-x="1097" 
d="M473 1462q171 0 289 -81t178.5 -239t60.5 -388q0 -246 -62 -414t-183 -254t-299 -86h-316v668h-110v170h110v624h332zM469 1270h-107v-432h184v-170h-184v-473h92q166 0 243 136.5t77 411.5q0 178 -33.5 295t-101.5 174.5t-170 57.5z" />
    <glyph glyph-name="dcroat" unicode="&#x111;" horiz-adv-x="982" 
d="M407 -20q-160 0 -243 147.5t-83 416.5t83.5 415.5t235.5 146.5q52 0 98 -19t83.5 -56t64.5 -91h8q-2 53 -4 96t-2 74v118h-211v155h211v173h209v-173h122v-155h-122v-1228h-168l-30 136h-12q-31 -52 -65.5 -86.5t-77 -52t-97.5 -17.5zM463 157q92 0 138.5 86.5
t46.5 267.5v55q0 182 -44.5 268t-141.5 86q-86 0 -127 -95t-41 -282q0 -191 42 -288.5t127 -97.5z" />
    <glyph glyph-name="Emacron" unicode="&#x112;" horiz-adv-x="846" 
d="M757 0h-616v1462h616v-190h-396v-415h371v-191h-371v-471h396v-195zM713 1771v-156h-527v156h527z" />
    <glyph glyph-name="emacron" unicode="&#x113;" horiz-adv-x="892" 
d="M458 1128q119 0 199 -63.5t120 -175.5t40 -257v-129h-528q2 -176 58.5 -262.5t172.5 -86.5q65 0 125 18.5t127 60.5v-180q-62 -37 -131 -55t-148 -18q-146 0 -237 71.5t-132.5 199.5t-41.5 297q0 187 42 316t126 196.5t208 67.5zM461 960q-77 0 -121 -72t-49 -227h331
q0 86 -18 153.5t-53.5 106.5t-89.5 39zM717 1418v-156h-527v156h527z" />
    <glyph glyph-name="Ebreve" unicode="&#x114;" horiz-adv-x="846" 
d="M757 0h-616v1462h616v-190h-396v-415h371v-191h-371v-471h396v-195zM719 1897q0 -93 -35.5 -160t-97 -103.5t-141.5 -36.5q-119 0 -191 75.5t-76 224.5h132q4 -49 20.5 -81.5t46 -49t71.5 -16.5t72 15.5t47.5 48t21.5 83.5h130z" />
    <glyph glyph-name="ebreve" unicode="&#x115;" horiz-adv-x="892" 
d="M458 1128q119 0 199 -63.5t120 -175.5t40 -257v-129h-528q2 -176 58.5 -262.5t172.5 -86.5q65 0 125 18.5t127 60.5v-180q-62 -37 -131 -55t-148 -18q-146 0 -237 71.5t-132.5 199.5t-41.5 297q0 187 42 316t126 196.5t208 67.5zM461 960q-77 0 -121 -72t-49 -227h331
q0 86 -18 153.5t-53.5 106.5t-89.5 39zM723 1544q0 -93 -35.5 -160t-97 -103.5t-141.5 -36.5q-119 0 -191 75.5t-76 224.5h132q4 -49 20.5 -81.5t46 -49t71.5 -16.5t72 15.5t47.5 48t21.5 83.5h130z" />
    <glyph glyph-name="Edotaccent" unicode="&#x116;" horiz-adv-x="846" 
d="M757 0h-616v1462h616v-190h-396v-415h371v-191h-371v-471h396v-195zM470 1888q61 0 89.5 -35t28.5 -99q0 -62 -29.5 -96.5t-88.5 -34.5q-56 0 -87.5 34.5t-31.5 96.5q0 66 29.5 100t89.5 34z" />
    <glyph glyph-name="edotaccent" unicode="&#x117;" horiz-adv-x="892" 
d="M458 1128q119 0 199 -63.5t120 -175.5t40 -257v-129h-528q2 -176 58.5 -262.5t172.5 -86.5q65 0 125 18.5t127 60.5v-180q-62 -37 -131 -55t-148 -18q-146 0 -237 71.5t-132.5 199.5t-41.5 297q0 187 42 316t126 196.5t208 67.5zM461 960q-77 0 -121 -72t-49 -227h331
q0 86 -18 153.5t-53.5 106.5t-89.5 39zM475 1536q61 0 89.5 -35t28.5 -99q0 -62 -29.5 -96.5t-88.5 -34.5q-56 0 -87.5 34.5t-31.5 96.5q0 66 29.5 100t89.5 34z" />
    <glyph glyph-name="Eogonek" unicode="&#x118;" horiz-adv-x="846" 
d="M757 0h-616v1462h616v-190h-396v-415h371v-191h-371v-471h396v-195zM590 -226q0 -45 23 -70.5t66 -25.5q24 0 40.5 4.5t28.5 10.5v-140q-19 -8 -47.5 -14.5t-65.5 -6.5q-106 0 -159.5 52.5t-53.5 147.5q0 50 19 101.5t57 101t95 93.5l115 -28q-68 -69 -93 -120t-25 -106z
" />
    <glyph glyph-name="eogonek" unicode="&#x119;" horiz-adv-x="892" 
d="M606 -230q0 -43 23.5 -65t62.5 -22q20 0 43 4.5t36 10.5v-145q-26 -10 -59.5 -14.5t-64.5 -4.5q-106 0 -156.5 53t-50.5 149q0 50 18.5 97t53 90t83.5 80l177 50q-57 -55 -93.5 -106t-54.5 -95.5t-18 -81.5zM458 1128q119 0 199 -63.5t120 -175.5t40 -257v-129h-528
q2 -176 58.5 -262.5t172.5 -86.5q65 0 125 18.5t127 60.5v-180q-62 -37 -131 -55t-148 -18q-146 0 -237 71.5t-132.5 199.5t-41.5 297q0 187 42 316t126 196.5t208 67.5zM461 960q-77 0 -121 -72t-49 -227h331q0 86 -18 153.5t-53.5 106.5t-89.5 39z" />
    <glyph glyph-name="Ecaron" unicode="&#x11a;" horiz-adv-x="846" 
d="M757 0h-616v1462h616v-190h-396v-415h371v-191h-371v-471h396v-195zM352 1594q-21 43 -53.5 97.5t-68.5 109.5t-69 97v24h124q36 -34 78.5 -82.5t85.5 -100.5q49 59 85 98.5t81 84.5h123v-24q-30 -40 -66 -94t-69.5 -109.5t-55.5 -100.5h-195z" />
    <glyph glyph-name="ecaron" unicode="&#x11b;" horiz-adv-x="892" 
d="M458 1128q119 0 199 -63.5t120 -175.5t40 -257v-129h-528q2 -176 58.5 -262.5t172.5 -86.5q65 0 125 18.5t127 60.5v-180q-62 -37 -131 -55t-148 -18q-146 0 -237 71.5t-132.5 199.5t-41.5 297q0 187 42 316t126 196.5t208 67.5zM461 960q-77 0 -121 -72t-49 -227h331
q0 86 -18 153.5t-53.5 106.5t-89.5 39zM356 1241q-21 43 -53.5 97.5t-68.5 109.5t-69 97v24h124q36 -34 78.5 -82.5t85.5 -100.5q49 59 85 98.5t81 84.5h123v-24q-30 -40 -66 -94t-69.5 -109.5t-55.5 -100.5h-195z" />
    <glyph glyph-name="Gcircumflex" unicode="&#x11c;" horiz-adv-x="1143" 
d="M622 795h414v-739q-97 -38 -199 -57t-207 -19q-180 0 -298.5 95.5t-177 265.5t-58.5 394t65 392t193 262t317 94q98 0 185.5 -24.5t160.5 -68.5l-69 -183q-66 42 -133 63t-137 21q-116 0 -194.5 -65.5t-118.5 -190.5t-40 -306q0 -163 33.5 -288.5t104 -196t182.5 -70.5
q49 0 93.5 7t82.5 21v403h-199v190zM741 1922q22 -46 53.5 -98.5t67 -106t70.5 -99.5v-24h-123q-39 36 -80 83t-86 100q-45 -53 -88 -102t-77 -81h-124v24q34 44 70.5 99t68.5 109t52 96h196z" />
    <glyph glyph-name="gcircumflex" unicode="&#x11d;" horiz-adv-x="864" 
d="M377 -492q-172 0 -268 81t-96 228q0 106 55.5 177t144.5 96q-45 20 -73.5 61t-28.5 97q0 60 27.5 104t75.5 87q-63 39 -100.5 124.5t-37.5 192.5q0 116 40 199t116 128t184 45q34 0 59 -3.5t44.5 -8.5t33.5 -12h298v-129l-139 -24q23 -41 33.5 -90t10.5 -103
q0 -175 -88.5 -272.5t-250.5 -97.5q-50 0 -76 9q-22 -20 -39.5 -46.5t-17.5 -66.5q0 -26 13 -45.5t39 -29.5t65 -10h172q128 0 197.5 -73t69.5 -222q0 -190 -118.5 -293t-344.5 -103zM392 -331q84 0 139.5 23t82.5 69.5t27 113.5q0 55 -16.5 83.5t-51.5 39.5t-89 11h-138
q-39 0 -69.5 -18t-48 -56t-17.5 -100q0 -82 48.5 -124t132.5 -42zM417 537q62 0 95 55.5t33 163.5q0 113 -33.5 168.5t-95.5 55.5q-61 0 -94.5 -58t-33.5 -167q0 -105 32 -161.5t97 -56.5zM524 1569q22 -46 53.5 -98.5t67 -106t70.5 -99.5v-24h-123q-39 36 -80 83t-86 100
q-45 -53 -88 -102t-77 -81h-124v24q34 44 70.5 99t68.5 109t52 96h196z" />
    <glyph glyph-name="Gbreve" unicode="&#x11e;" horiz-adv-x="1143" 
d="M622 795h414v-739q-97 -38 -199 -57t-207 -19q-180 0 -298.5 95.5t-177 265.5t-58.5 394t65 392t193 262t317 94q98 0 185.5 -24.5t160.5 -68.5l-69 -183q-66 42 -133 63t-137 21q-116 0 -194.5 -65.5t-118.5 -190.5t-40 -306q0 -163 33.5 -288.5t104 -196t182.5 -70.5
q49 0 93.5 7t82.5 21v403h-199v190zM914 1897q0 -93 -35.5 -160t-97 -103.5t-141.5 -36.5q-119 0 -191 75.5t-76 224.5h132q4 -49 20.5 -81.5t46 -49t71.5 -16.5t72 15.5t47.5 48t21.5 83.5h130z" />
    <glyph glyph-name="gbreve" unicode="&#x11f;" horiz-adv-x="864" 
d="M377 -492q-172 0 -268 81t-96 228q0 106 55.5 177t144.5 96q-45 20 -73.5 61t-28.5 97q0 60 27.5 104t75.5 87q-63 39 -100.5 124.5t-37.5 192.5q0 116 40 199t116 128t184 45q34 0 59 -3.5t44.5 -8.5t33.5 -12h298v-129l-139 -24q23 -41 33.5 -90t10.5 -103
q0 -175 -88.5 -272.5t-250.5 -97.5q-50 0 -76 9q-22 -20 -39.5 -46.5t-17.5 -66.5q0 -26 13 -45.5t39 -29.5t65 -10h172q128 0 197.5 -73t69.5 -222q0 -190 -118.5 -293t-344.5 -103zM392 -331q84 0 139.5 23t82.5 69.5t27 113.5q0 55 -16.5 83.5t-51.5 39.5t-89 11h-138
q-39 0 -69.5 -18t-48 -56t-17.5 -100q0 -82 48.5 -124t132.5 -42zM417 537q62 0 95 55.5t33 163.5q0 113 -33.5 168.5t-95.5 55.5q-61 0 -94.5 -58t-33.5 -167q0 -105 32 -161.5t97 -56.5zM695 1544q0 -93 -35.5 -160t-97 -103.5t-141.5 -36.5q-119 0 -191 75.5t-76 224.5
h132q4 -49 20.5 -81.5t46 -49t71.5 -16.5t72 15.5t47.5 48t21.5 83.5h130z" />
    <glyph glyph-name="Gdot" unicode="&#x120;" horiz-adv-x="1143" 
d="M622 795h414v-739q-97 -38 -199 -57t-207 -19q-180 0 -298.5 95.5t-177 265.5t-58.5 394t65 392t193 262t317 94q98 0 185.5 -24.5t160.5 -68.5l-69 -183q-66 42 -133 63t-137 21q-116 0 -194.5 -65.5t-118.5 -190.5t-40 -306q0 -163 33.5 -288.5t104 -196t182.5 -70.5
q49 0 93.5 7t82.5 21v403h-199v190zM665 1889q61 0 89.5 -35t28.5 -99q0 -62 -29.5 -96.5t-88.5 -34.5q-56 0 -87.5 34.5t-31.5 96.5q0 66 29.5 100t89.5 34z" />
    <glyph glyph-name="gdot" unicode="&#x121;" horiz-adv-x="864" 
d="M377 -492q-172 0 -268 81t-96 228q0 106 55.5 177t144.5 96q-45 20 -73.5 61t-28.5 97q0 60 27.5 104t75.5 87q-63 39 -100.5 124.5t-37.5 192.5q0 116 40 199t116 128t184 45q34 0 59 -3.5t44.5 -8.5t33.5 -12h298v-129l-139 -24q23 -41 33.5 -90t10.5 -103
q0 -175 -88.5 -272.5t-250.5 -97.5q-50 0 -76 9q-22 -20 -39.5 -46.5t-17.5 -66.5q0 -26 13 -45.5t39 -29.5t65 -10h172q128 0 197.5 -73t69.5 -222q0 -190 -118.5 -293t-344.5 -103zM392 -331q84 0 139.5 23t82.5 69.5t27 113.5q0 55 -16.5 83.5t-51.5 39.5t-89 11h-138
q-39 0 -69.5 -18t-48 -56t-17.5 -100q0 -82 48.5 -124t132.5 -42zM417 537q62 0 95 55.5t33 163.5q0 113 -33.5 168.5t-95.5 55.5q-61 0 -94.5 -58t-33.5 -167q0 -105 32 -161.5t97 -56.5zM437 1536q61 0 89.5 -35t28.5 -99q0 -62 -29.5 -96.5t-88.5 -34.5q-56 0 -87.5 34.5
t-31.5 96.5q0 66 29.5 100t89.5 34z" />
    <glyph glyph-name="uni0122" unicode="&#x122;" horiz-adv-x="1143" 
d="M622 795h414v-739q-97 -38 -199 -57t-207 -19q-180 0 -298.5 95.5t-177 265.5t-58.5 394t65 392t193 262t317 94q98 0 185.5 -24.5t160.5 -68.5l-69 -183q-66 42 -133 63t-137 21q-116 0 -194.5 -65.5t-118.5 -190.5t-40 -306q0 -163 33.5 -288.5t104 -196t182.5 -70.5
q49 0 93.5 7t82.5 21v403h-199v190zM762 -125v-21q-15 -51 -36.5 -105.5t-47.5 -106.5t-54 -95h-129v25q11 36 23 92t22 113t13 98h209z" />
    <glyph glyph-name="uni0123" unicode="&#x123;" horiz-adv-x="864" 
d="M597 1569v-25q-14 -44 -28.5 -100t-25 -110t-12.5 -93h-208v22q12 49 33 103.5t49.5 107t60.5 95.5h131zM377 -492q-172 0 -268 81t-96 228q0 106 55.5 177t144.5 96q-45 20 -73.5 61t-28.5 97q0 60 27.5 104t75.5 87q-63 39 -100.5 124.5t-37.5 192.5q0 116 40 199
t116 128t184 45q34 0 59 -3.5t44.5 -8.5t33.5 -12h298v-129l-139 -24q23 -41 33.5 -90t10.5 -103q0 -175 -88.5 -272.5t-250.5 -97.5q-50 0 -76 9q-22 -20 -39.5 -46.5t-17.5 -66.5q0 -26 13 -45.5t39 -29.5t65 -10h172q128 0 197.5 -73t69.5 -222q0 -190 -118.5 -293
t-344.5 -103zM392 -331q84 0 139.5 23t82.5 69.5t27 113.5q0 55 -16.5 83.5t-51.5 39.5t-89 11h-138q-39 0 -69.5 -18t-48 -56t-17.5 -100q0 -82 48.5 -124t132.5 -42zM417 537q62 0 95 55.5t33 163.5q0 113 -33.5 168.5t-95.5 55.5q-61 0 -94.5 -58t-33.5 -167
q0 -105 32 -161.5t97 -56.5z" />
    <glyph glyph-name="Hcircumflex" unicode="&#x124;" horiz-adv-x="1134" 
d="M994 0h-220v666h-413v-666h-220v1462h220v-602h413v602h220v-1462zM667 1922q22 -46 53.5 -98.5t67 -106t70.5 -99.5v-24h-123q-39 36 -80 83t-86 100q-45 -53 -88 -102t-77 -81h-124v24q34 44 70.5 99t68.5 109t52 96h196z" />
    <glyph glyph-name="hcircumflex" unicode="&#x125;" horiz-adv-x="975" 
d="M335 1556v-399q0 -52 -4 -101.5t-12 -95.5h14q21 54 56 91.5t82 58t102 20.5q94 0 156.5 -44.5t93 -131t30.5 -211.5v-743h-210v690q0 132 -30 191.5t-96 59.5q-65 0 -105 -41t-58.5 -125.5t-18.5 -217.5v-557h-210v1556h210zM328 2017q22 -46 53.5 -98.5t67 -106
t70.5 -99.5v-24h-123q-39 36 -80 83t-86 100q-45 -53 -88 -102t-77 -81h-124v24q34 44 70.5 99t68.5 109t52 96h196z" />
    <glyph glyph-name="Hbar" unicode="&#x126;" horiz-adv-x="1134" 
d="M141 0v1082h-146v159h146v221h219v-221h414v221h220v-221h145v-159h-145v-1082h-220v665h-414v-665h-219zM361 861h414v221h-414v-221z" />
    <glyph glyph-name="hbar" unicode="&#x127;" horiz-adv-x="976" 
d="M336 1556v-175h220v-156h-220v-122q0 -37 -4 -78t-12 -88h13q21 54 56 91.5t81.5 57.5t101.5 20q95 0 157.5 -44.5t93.5 -130t31 -211.5v-720h-211v666q0 132 -30.5 191.5t-96.5 59.5q-62 0 -102.5 -37.5t-59.5 -122t-19 -223.5v-534h-210v1225h-119v156h119v175h211z
" />
    <glyph glyph-name="Itilde" unicode="&#x128;" horiz-adv-x="501" 
d="M141 0v1462h220v-1462h-220zM-65 1594q4 48 13 96.5t28.5 88.5t51.5 64t80 24q39 0 74.5 -16.5t69 -39t65 -39t62.5 -16.5q30 0 45 30.5t23 82.5h122q-5 -133 -53 -203t-119 -70q-38 0 -75.5 17t-72.5 39t-65.5 39t-54.5 17q-25 0 -45 -28.5t-28 -85.5h-121z" />
    <glyph glyph-name="itilde" unicode="&#x129;" horiz-adv-x="461" 
d="M336 0h-210v1109h210v-1109zM-88 1241q4 48 13 96.5t28.5 88.5t51.5 64t80 24q39 0 74.5 -16.5t69 -39t65 -39t62.5 -16.5q30 0 45 30.5t23 82.5h122q-5 -133 -53 -203t-119 -70q-38 0 -75.5 17t-72.5 39t-65.5 39t-54.5 17q-25 0 -45 -28.5t-28 -85.5h-121z" />
    <glyph glyph-name="Imacron" unicode="&#x12a;" horiz-adv-x="501" 
d="M141 0v1462h220v-1462h-220zM513 1771v-156h-527v156h527z" />
    <glyph glyph-name="imacron" unicode="&#x12b;" horiz-adv-x="461" 
d="M336 0h-210v1109h210v-1109zM493 1418v-156h-527v156h527z" />
    <glyph glyph-name="Ibreve" unicode="&#x12c;" horiz-adv-x="501" 
d="M141 0v1462h220v-1462h-220zM521 1897q0 -93 -35.5 -160t-97 -103.5t-141.5 -36.5q-119 0 -191 75.5t-76 224.5h132q4 -49 20.5 -81.5t46 -49t71.5 -16.5t72 15.5t47.5 48t21.5 83.5h130z" />
    <glyph glyph-name="ibreve" unicode="&#x12d;" horiz-adv-x="461" 
d="M336 0h-210v1109h210v-1109zM498 1544q0 -93 -35.5 -160t-97 -103.5t-141.5 -36.5q-119 0 -191 75.5t-76 224.5h132q4 -49 20.5 -81.5t46 -49t71.5 -16.5t72 15.5t47.5 48t21.5 83.5h130z" />
    <glyph glyph-name="Iogonek" unicode="&#x12e;" horiz-adv-x="501" 
d="M141 0v1462h220v-1462h-220zM240 -226q0 -45 23 -70.5t66 -25.5q24 0 40.5 4.5t28.5 10.5v-140q-19 -8 -47.5 -14.5t-65.5 -6.5q-106 0 -159.5 52.5t-53.5 147.5q0 50 19 101.5t57 101t95 93.5l115 -28q-68 -69 -93 -120t-25 -106z" />
    <glyph glyph-name="iogonek" unicode="&#x12f;" horiz-adv-x="462" 
d="M336 1109v-1109h-209v1109h209zM233 1536q61 0 89 -35t28 -99q0 -62 -29.5 -96.5t-87.5 -34.5q-57 0 -88.5 34.5t-31.5 96.5q0 66 30 100t90 34zM186 -226q0 -45 23 -70.5t66 -25.5q24 0 40.5 4.5t28.5 10.5v-140q-19 -8 -47.5 -14.5t-65.5 -6.5q-106 0 -159.5 52.5
t-53.5 147.5q0 50 19 101.5t57 101t95 93.5l115 -28q-68 -69 -93 -120t-25 -106z" />
    <glyph glyph-name="Idotaccent" unicode="&#x130;" horiz-adv-x="501" 
d="M141 0v1462h220v-1462h-220zM252 1887q61 0 89.5 -35t28.5 -99q0 -62 -29.5 -96.5t-88.5 -34.5q-56 0 -87.5 34.5t-31.5 96.5q0 66 29.5 100t89.5 34z" />
    <glyph glyph-name="dotlessi" unicode="&#x131;" horiz-adv-x="461" 
d="M336 0h-210v1109h210v-1109z" />
    <glyph glyph-name="IJ" unicode="&#x132;" horiz-adv-x="997" 
d="M141 0v1462h220v-1462h-220zM538 -412q-39 0 -75.5 5t-68.5 17v191q25 -9 53.5 -15t60.5 -6q48 0 77 24.5t42.5 80.5t13.5 150v1427h219v-1432q0 -164 -37 -261t-109 -139t-176 -42z" />
    <glyph glyph-name="ij" unicode="&#x133;" horiz-adv-x="923" 
d="M336 1109v-1109h-209v1109h209zM233 1536q61 0 89 -35t28 -99q0 -62 -29.5 -96.5t-87.5 -34.5q-57 0 -88.5 34.5t-31.5 96.5q0 66 30 100t90 34zM541 -492q-32 0 -62 5.5t-57 15.5v183q19 -8 39 -12.5t38 -4.5q47 0 68 39.5t21 123.5v1251h210v-1258q0 -118 -30 -193.5
t-87.5 -111.5t-139.5 -38zM575 1402q0 66 30 100t90 34t88.5 -35t28.5 -99q0 -62 -29.5 -96.5t-87.5 -34.5q-57 0 -88.5 34.5t-31.5 96.5z" />
    <glyph glyph-name="Jcircumflex" unicode="&#x134;" horiz-adv-x="496" 
d="M37 -412q-39 0 -75.5 5t-68.5 17v191q25 -9 53.5 -15t60.5 -6q48 0 77 24.5t42.5 80.5t13.5 150v1427h219v-1432q0 -164 -37 -261t-109 -139t-176 -42zM347 1921q22 -46 53.5 -98.5t67 -106t70.5 -99.5v-24h-123q-39 36 -80 83t-86 100q-45 -53 -88 -102t-77 -81h-124v24
q34 44 70.5 99t68.5 109t52 96h196z" />
    <glyph glyph-name="jcircumflex" unicode="&#x135;" horiz-adv-x="462" 
d="M79 -492q-29 0 -64.5 6.5t-54.5 14.5v183q19 -8 39 -12.5t38 -4.5q47 0 68 38.5t21 118.5v1257h210v-1258q0 -111 -29.5 -187.5t-86.5 -116t-141 -39.5zM330 1569q22 -46 53.5 -98.5t67 -106t70.5 -99.5v-24h-123q-39 36 -80 83t-86 100q-45 -53 -88 -102t-77 -81h-124
v24q34 44 70.5 99t68.5 109t52 96h196z" />
    <glyph glyph-name="uni0136" unicode="&#x136;" horiz-adv-x="974" 
d="M985 0h-245l-281 641l-98 -106v-535h-220v1462h220v-708q11 34 36.5 84.5t63.5 119.5l275 504h237l-361 -648zM661 -125v-21q-15 -51 -36.5 -105.5t-47.5 -106.5t-54 -95h-129v25q11 36 23 92t22 113t13 98h209z" />
    <glyph glyph-name="uni0137" unicode="&#x137;" horiz-adv-x="885" 
d="M335 1556v-727q0 -64 -2 -125.5t-9 -122.5h8q17 39 36.5 73.5t37.5 64.5l234 390h226l-278 -440l295 -669h-228l-210 508l-110 -124v-384h-210v1556h210zM593 -125v-21q-15 -51 -36.5 -105.5t-47.5 -106.5t-54 -95h-129v25q11 36 23 92t22 113t13 98h209z" />
    <glyph glyph-name="kgreenlandic" unicode="&#x138;" horiz-adv-x="885" 
d="M866 1109l-278 -440l295 -669h-228l-210 508l-110 -124v-384h-210v1109h210v-280q0 -67 -2.5 -128.5t-8.5 -119.5h8q16 34 33 66t32 58l243 404h226z" />
    <glyph glyph-name="Lacute" unicode="&#x139;" horiz-adv-x="792" 
d="M141 0v1462h220v-1267h399v-195h-619zM555 1922v-19q-20 -31 -53 -71t-72.5 -83.5t-79 -83.5t-73.5 -71h-144v25q38 55 70 106.5t59 101t49 95.5h244z" />
    <glyph glyph-name="lacute" unicode="&#x13a;" horiz-adv-x="458" 
d="M335 0h-210v1556h210v-1556zM534 2016v-19q-20 -31 -53 -71t-72.5 -83.5t-79 -83.5t-73.5 -71h-144v25q38 55 70 106.5t59 101t49 95.5h244z" />
    <glyph glyph-name="uni013B" unicode="&#x13b;" horiz-adv-x="792" 
d="M141 0v1462h220v-1267h399v-195h-619zM574 -125v-21q-15 -51 -36.5 -105.5t-47.5 -106.5t-54 -95h-129v25q11 36 23 92t22 113t13 98h209z" />
    <glyph glyph-name="uni013C" unicode="&#x13c;" horiz-adv-x="458" 
d="M335 0h-210v1556h210v-1556zM351 -125v-21q-15 -51 -36.5 -105.5t-47.5 -106.5t-54 -95h-129v25q11 36 23 92t22 113t13 98h209z" />
    <glyph glyph-name="Lcaron" unicode="&#x13d;" horiz-adv-x="792" 
d="M141 0v1462h220v-1267h399v-195h-619zM818 1461v-21q-11 -46 -31.5 -103t-45.5 -111t-49 -92h-128v24q4 20 11 59t13.5 86t12 89.5t6.5 68.5h211z" />
    <glyph glyph-name="lcaron" unicode="&#x13e;" horiz-adv-x="459" 
d="M335 0h-210v1556h210v-1556zM662 1556v-21q-11 -46 -31.5 -103t-45.5 -111t-49 -92h-128v24q4 20 11 59t13.5 86t12 89.5t6.5 68.5h211z" />
    <glyph glyph-name="Ldot" unicode="&#x13f;" horiz-adv-x="792" 
d="M141 0v1462h220v-1267h399v-195h-619zM655 937q61 0 89.5 -35t28.5 -99q0 -62 -29.5 -96.5t-88.5 -34.5q-56 0 -87.5 34.5t-31.5 96.5q0 66 29.5 100t89.5 34z" />
    <glyph glyph-name="ldot" unicode="&#x140;" horiz-adv-x="617" 
d="M335 0h-210v1556h210v-1556zM541 944q61 0 89.5 -35t28.5 -99q0 -62 -29.5 -96.5t-88.5 -34.5q-56 0 -87.5 34.5t-31.5 96.5q0 66 29.5 100t89.5 34z" />
    <glyph glyph-name="Lslash" unicode="&#x141;" horiz-adv-x="818" 
d="M165 0v498l-87 -58l-103 134l190 137v751h219v-596l199 133l100 -136l-299 -209v-459h398v-195h-617z" />
    <glyph glyph-name="lslash" unicode="&#x142;" horiz-adv-x="519" 
d="M155 0v582l-98 -75l-102 135l200 154v760h210v-604l100 74l104 -133l-204 -157v-736h-210z" />
    <glyph glyph-name="Nacute" unicode="&#x143;" horiz-adv-x="1212" 
d="M1073 0h-262l-469 1115h-8q5 -62 8 -118t4.5 -105t1.5 -92v-800h-207v1462h260l469 -1094h7q-4 64 -6.5 119.5t-4 104t-1.5 88.5v782h208v-1462zM904 1922v-19q-20 -31 -53 -71t-72.5 -83.5t-79 -83.5t-73.5 -71h-144v25q38 55 70 106.5t59 101t49 95.5h244z" />
    <glyph glyph-name="nacute" unicode="&#x144;" horiz-adv-x="975" 
d="M574 1130q136 0 207.5 -97t71.5 -288v-745h-210v691q0 125 -29 188.5t-100 63.5q-96 0 -137.5 -89t-41.5 -295v-559h-210v1109h167l22 -151h14q24 54 60 92.5t83 59t103 20.5zM805 1569v-19q-20 -31 -53 -71t-72.5 -83.5t-79 -83.5t-73.5 -71h-144v25q38 55 70 106.5
t59 101t49 95.5h244z" />
    <glyph glyph-name="uni0145" unicode="&#x145;" horiz-adv-x="1212" 
d="M1073 0h-262l-469 1115h-8q5 -62 8 -118t4.5 -105t1.5 -92v-800h-207v1462h260l469 -1094h7q-4 64 -6.5 119.5t-4 104t-1.5 88.5v782h208v-1462zM727 -125v-21q-15 -51 -36.5 -105.5t-47.5 -106.5t-54 -95h-129v25q11 36 23 92t22 113t13 98h209z" />
    <glyph glyph-name="uni0146" unicode="&#x146;" horiz-adv-x="975" 
d="M574 1130q136 0 207.5 -97t71.5 -288v-745h-210v691q0 125 -29 188.5t-100 63.5q-96 0 -137.5 -89t-41.5 -295v-559h-210v1109h167l22 -151h14q24 54 60 92.5t83 59t103 20.5zM609 -125v-21q-15 -51 -36.5 -105.5t-47.5 -106.5t-54 -95h-129v25q11 36 23 92t22 113t13 98
h209z" />
    <glyph glyph-name="Ncaron" unicode="&#x147;" horiz-adv-x="1212" 
d="M1073 0h-262l-469 1115h-8q5 -62 8 -118t4.5 -105t1.5 -92v-800h-207v1462h260l469 -1094h7q-4 64 -6.5 119.5t-4 104t-1.5 88.5v782h208v-1462zM509 1594q-21 43 -53.5 97.5t-68.5 109.5t-69 97v24h124q36 -34 78.5 -82.5t85.5 -100.5q49 59 85 98.5t81 84.5h123v-24
q-30 -40 -66 -94t-69.5 -109.5t-55.5 -100.5h-195z" />
    <glyph glyph-name="ncaron" unicode="&#x148;" horiz-adv-x="975" 
d="M574 1130q136 0 207.5 -97t71.5 -288v-745h-210v691q0 125 -29 188.5t-100 63.5q-96 0 -137.5 -89t-41.5 -295v-559h-210v1109h167l22 -151h14q24 54 60 92.5t83 59t103 20.5zM408 1241q-21 43 -53.5 97.5t-68.5 109.5t-69 97v24h124q36 -34 78.5 -82.5t85.5 -100.5
q49 59 85 98.5t81 84.5h123v-24q-30 -40 -66 -94t-69.5 -109.5t-55.5 -100.5h-195z" />
    <glyph glyph-name="napostrophe" unicode="&#x149;" horiz-adv-x="1157" 
d="M756 1130q136 0 207.5 -97t71.5 -288v-745h-210v691q0 125 -29 188.5t-100 63.5q-96 0 -137.5 -89t-41.5 -295v-559h-210v1109h167l22 -151h14q24 54 60 92.5t83 59t103 20.5zM305 1462l13 -22q-17 -92 -39.5 -178.5t-49 -167.5t-58.5 -157h-168q15 59 28.5 128.5
t25.5 141t20.5 137.5t13.5 118h214z" />
    <glyph glyph-name="Eng" unicode="&#x14a;" horiz-adv-x="1213" 
d="M760 -412q-38 0 -73.5 5t-68.5 17v191q25 -9 54 -15t61 -6q46 0 75.5 23.5t43 73.5t13.5 129l-525 1133h-6q5 -61 7.5 -116.5t4 -104.5t1.5 -92v-826h-206v1462h260l469 -1013h6q-3 62 -5.5 116.5t-4 103t-1.5 89.5v704h208v-1433q0 -148 -33.5 -246.5t-102.5 -146.5
t-177 -48z" />
    <glyph glyph-name="eng" unicode="&#x14b;" horiz-adv-x="975" 
d="M596 -492q-30 0 -60 5.5t-59 15.5v183q21 -8 40.5 -12.5t37.5 -4.5q45 0 66.5 40.5t21.5 123.5v832q0 123 -31 185.5t-98 62.5q-60 0 -100 -35t-59.5 -118t-19.5 -227v-559h-210v1109h167l23 -151h11q24 54 60 92.5t83.5 59t104.5 20.5q98 0 159.5 -49t90.5 -139.5
t29 -215.5v-874q0 -100 -27 -178t-83.5 -122t-146.5 -44z" />
    <glyph glyph-name="Omacron" unicode="&#x14c;" horiz-adv-x="1166" 
d="M1071 733q0 -165 -28.5 -303t-87 -239t-151 -156t-219.5 -55q-129 0 -222 56t-152 157.5t-87 239.5t-28 302q0 248 55 414.5t164 250.5t270 84q170 0 277.5 -95t158 -264.5t50.5 -391.5zM324 733q0 -183 29.5 -307t87.5 -187t143 -63q86 0 143 61.5t86 185t29 310.5
q0 279 -64.5 418t-192.5 139q-87 0 -145 -63t-87 -186.5t-29 -307.5zM848 1771v-156h-527v156h527z" />
    <glyph glyph-name="omacron" unicode="&#x14d;" horiz-adv-x="951" 
d="M871 557q0 -124 -23 -229t-70.5 -183t-123 -121.5t-180.5 -43.5q-100 0 -174 43t-122.5 120.5t-72.5 183t-24 230.5q0 175 41.5 303.5t129.5 199t225 70.5q123 0 211.5 -66t135.5 -193.5t47 -313.5zM294 555q0 -130 19.5 -218t60 -132.5t103.5 -44.5t102.5 44t58 132
t18.5 221q0 130 -18.5 217.5t-58 131t-103.5 43.5q-96 0 -139 -97.5t-43 -296.5zM739 1418v-156h-527v156h527z" />
    <glyph glyph-name="Obreve" unicode="&#x14e;" horiz-adv-x="1166" 
d="M1071 733q0 -165 -28.5 -303t-87 -239t-151 -156t-219.5 -55q-129 0 -222 56t-152 157.5t-87 239.5t-28 302q0 248 55 414.5t164 250.5t270 84q170 0 277.5 -95t158 -264.5t50.5 -391.5zM324 733q0 -183 29.5 -307t87.5 -187t143 -63q86 0 143 61.5t86 185t29 310.5
q0 279 -64.5 418t-192.5 139q-87 0 -145 -63t-87 -186.5t-29 -307.5zM853 1897q0 -93 -35.5 -160t-97 -103.5t-141.5 -36.5q-119 0 -191 75.5t-76 224.5h132q4 -49 20.5 -81.5t46 -49t71.5 -16.5t72 15.5t47.5 48t21.5 83.5h130z" />
    <glyph glyph-name="obreve" unicode="&#x14f;" horiz-adv-x="951" 
d="M871 557q0 -124 -23 -229t-70.5 -183t-123 -121.5t-180.5 -43.5q-100 0 -174 43t-122.5 120.5t-72.5 183t-24 230.5q0 175 41.5 303.5t129.5 199t225 70.5q123 0 211.5 -66t135.5 -193.5t47 -313.5zM294 555q0 -130 19.5 -218t60 -132.5t103.5 -44.5t102.5 44t58 132
t18.5 221q0 130 -18.5 217.5t-58 131t-103.5 43.5q-96 0 -139 -97.5t-43 -296.5zM745 1544q0 -93 -35.5 -160t-97 -103.5t-141.5 -36.5q-119 0 -191 75.5t-76 224.5h132q4 -49 20.5 -81.5t46 -49t71.5 -16.5t72 15.5t47.5 48t21.5 83.5h130z" />
    <glyph glyph-name="Ohungarumlaut" unicode="&#x150;" horiz-adv-x="1166" 
d="M1071 733q0 -165 -28.5 -303t-87 -239t-151 -156t-219.5 -55q-129 0 -222 56t-152 157.5t-87 239.5t-28 302q0 248 55 414.5t164 250.5t270 84q170 0 277.5 -95t158 -264.5t50.5 -391.5zM324 733q0 -183 29.5 -307t87.5 -187t143 -63q86 0 143 61.5t86 185t29 310.5
q0 279 -64.5 418t-192.5 139q-87 0 -145 -63t-87 -186.5t-29 -307.5zM1010 1922v-19q-15 -31 -45 -72.5t-67 -85.5t-74.5 -83.5t-68.5 -67.5h-108v25q32 54 64 112.5t57.5 110t37.5 80.5h204zM698 1922v-19q-16 -33 -44.5 -73t-64.5 -82t-75 -81.5t-78 -72.5h-101v25
q33 56 64.5 114.5t56.5 108t38 80.5h204z" />
    <glyph glyph-name="ohungarumlaut" unicode="&#x151;" horiz-adv-x="951" 
d="M871 557q0 -124 -23 -229t-70.5 -183t-123 -121.5t-180.5 -43.5q-100 0 -174 43t-122.5 120.5t-72.5 183t-24 230.5q0 175 41.5 303.5t129.5 199t225 70.5q123 0 211.5 -66t135.5 -193.5t47 -313.5zM294 555q0 -130 19.5 -218t60 -132.5t103.5 -44.5t102.5 44t58 132
t18.5 221q0 130 -18.5 217.5t-58 131t-103.5 43.5q-96 0 -139 -97.5t-43 -296.5zM902 1569v-19q-15 -31 -45 -72.5t-67 -85.5t-74.5 -83.5t-68.5 -67.5h-108v25q32 54 64 112.5t57.5 110t37.5 80.5h204zM590 1569v-19q-16 -33 -44.5 -73t-64.5 -82t-75 -81.5t-78 -72.5h-101
v25q33 56 64.5 114.5t56.5 108t38 80.5h204z" />
    <glyph glyph-name="OE" unicode="&#x152;" horiz-adv-x="1383" 
d="M602 1477q39 0 71.5 -4.5t60.5 -10.5h560v-190h-399v-415h373v-191h-373v-471h399v-195h-560q-29 -5 -61.5 -8.5t-71.5 -3.5q-173 0 -285 91t-166 258.5t-54 397.5t54.5 396t167 256t284.5 90zM611 1283q-81 -2 -136 -40.5t-88 -109.5t-47 -172t-14 -228q0 -170 27 -293
t90.5 -188.5t171.5 -67.5q20 0 36 2.5t28 5.5v1077q-12 7 -29 10.5t-39 3.5z" />
    <glyph glyph-name="oe" unicode="&#x153;" horiz-adv-x="1466" 
d="M1035 1128q120 0 198.5 -64t117 -175.5t38.5 -256.5v-129h-529q1 -178 58 -264.5t173 -86.5q66 0 125.5 18.5t126.5 60.5v-178q-61 -37 -128 -55t-146 -18q-109 0 -184.5 46.5t-124.5 135.5q-44 -89 -115 -135.5t-171 -46.5q-128 0 -216 71t-132.5 201t-44.5 305
q0 179 43.5 307.5t131.5 197t222 68.5q96 0 165.5 -45t114.5 -135q30 59 69.5 98.5t91 59.5t116.5 20zM477 949q-96 0 -139.5 -97.5t-43.5 -296.5q0 -130 20 -218.5t60.5 -133t101.5 -44.5q64 0 103.5 44t58 132t18.5 222q0 131 -19 218t-58 130.5t-102 43.5zM1032 958
q-75 0 -120 -71.5t-51 -226.5h333q0 88 -18 155.5t-53.5 105t-90.5 37.5z" />
    <glyph glyph-name="Racute" unicode="&#x154;" horiz-adv-x="990" 
d="M436 1462q155 0 256.5 -45.5t151.5 -138t50 -232.5q0 -94 -23 -169t-71.5 -131.5t-124.5 -95.5l299 -650h-243l-251 595h-119v-595h-220v1462h295zM436 1272h-75v-499h89q106 0 162.5 65.5t56.5 196.5q0 124 -56.5 180.5t-176.5 56.5zM805 1922v-19q-20 -31 -53 -71
t-72.5 -83.5t-79 -83.5t-73.5 -71h-144v25q38 55 70 106.5t59 101t49 95.5h244z" />
    <glyph glyph-name="racute" unicode="&#x155;" horiz-adv-x="663" 
d="M552 1129q22 0 44 -3.5t49 -11.5l-24 -221q-19 8 -41 11t-47 3q-46 0 -82.5 -24.5t-62.5 -70t-39.5 -106.5t-12.5 -134v-572h-210v1109h162l30 -189h11q23 58 55 105.5t74 75.5t94 28zM676 1569v-19q-20 -31 -53 -71t-72.5 -83.5t-79 -83.5t-73.5 -71h-144v25
q38 55 70 106.5t59 101t49 95.5h244z" />
    <glyph glyph-name="uni0156" unicode="&#x156;" horiz-adv-x="990" 
d="M436 1462q155 0 256.5 -45.5t151.5 -138t50 -232.5q0 -94 -23 -169t-71.5 -131.5t-124.5 -95.5l299 -650h-243l-251 595h-119v-595h-220v1462h295zM436 1272h-75v-499h89q106 0 162.5 65.5t56.5 196.5q0 124 -56.5 180.5t-176.5 56.5zM639 -125v-21q-15 -51 -36.5 -105.5
t-47.5 -106.5t-54 -95h-129v25q11 36 23 92t22 113t13 98h209z" />
    <glyph glyph-name="uni0157" unicode="&#x157;" horiz-adv-x="663" 
d="M552 1129q22 0 44 -3.5t49 -11.5l-24 -221q-19 8 -41 11t-47 3q-46 0 -82.5 -24.5t-62.5 -70t-39.5 -106.5t-12.5 -134v-572h-210v1109h162l30 -189h11q23 58 55 105.5t74 75.5t94 28zM361 -125v-21q-15 -51 -36.5 -105.5t-47.5 -106.5t-54 -95h-129v25q11 36 23 92
t22 113t13 98h209z" />
    <glyph glyph-name="Rcaron" unicode="&#x158;" horiz-adv-x="990" 
d="M436 1462q155 0 256.5 -45.5t151.5 -138t50 -232.5q0 -94 -23 -169t-71.5 -131.5t-124.5 -95.5l299 -650h-243l-251 595h-119v-595h-220v1462h295zM436 1272h-75v-499h89q106 0 162.5 65.5t56.5 196.5q0 124 -56.5 180.5t-176.5 56.5zM406 1594q-21 43 -53.5 97.5
t-68.5 109.5t-69 97v24h124q36 -34 78.5 -82.5t85.5 -100.5q49 59 85 98.5t81 84.5h123v-24q-30 -40 -66 -94t-69.5 -109.5t-55.5 -100.5h-195z" />
    <glyph glyph-name="rcaron" unicode="&#x159;" horiz-adv-x="663" 
d="M552 1129q22 0 44 -3.5t49 -11.5l-24 -221q-19 8 -41 11t-47 3q-46 0 -82.5 -24.5t-62.5 -70t-39.5 -106.5t-12.5 -134v-572h-210v1109h162l30 -189h11q23 58 55 105.5t74 75.5t94 28zM279 1241q-21 43 -53.5 97.5t-68.5 109.5t-69 97v24h124q36 -34 78.5 -82.5
t85.5 -100.5q49 59 85 98.5t81 84.5h123v-24q-30 -40 -66 -94t-69.5 -109.5t-55.5 -100.5h-195z" />
    <glyph glyph-name="Sacute" unicode="&#x15a;" horiz-adv-x="869" 
d="M799 414q0 -128 -50 -226t-141 -153t-215 -55q-59 0 -114 7t-106 23t-100 41v226q74 -45 156.5 -68.5t153.5 -23.5q63 0 106 27.5t65 74.5t22 105q0 61 -18.5 104.5t-65 82t-129.5 84.5q-64 37 -116 75.5t-88.5 86t-56 111t-19.5 150.5q-2 119 46.5 209t137.5 139.5
t209 48.5q86 0 166.5 -22t147.5 -59l-64 -197q-66 38 -127.5 56.5t-115.5 18.5q-58 0 -98 -23.5t-61 -65t-21 -95.5q0 -64 19.5 -107t67 -80t130.5 -83q93 -52 155 -110.5t93 -131.5t31 -170zM756 1922v-19q-20 -31 -53 -71t-72.5 -83.5t-79 -83.5t-73.5 -71h-144v25
q38 55 70 106.5t59 101t49 95.5h244z" />
    <glyph glyph-name="sacute" unicode="&#x15b;" horiz-adv-x="727" 
d="M667 309q0 -106 -39.5 -179.5t-114 -111.5t-179.5 -38q-79 0 -147 17t-123 45v209q49 -36 117 -61t138 -25q67 0 102.5 35t35.5 99q0 38 -14.5 67.5t-51 59t-103.5 64.5q-68 40 -119 87t-78.5 108t-27.5 143q0 138 88 220t236 82q76 0 143 -20t129 -59l-65 -165
q-45 31 -95.5 50.5t-102.5 19.5q-61 0 -95.5 -32.5t-34.5 -87.5q0 -37 14.5 -64t52 -55.5t103.5 -68.5q69 -42 120.5 -87.5t81 -105.5t29.5 -146zM679 1569v-19q-20 -31 -53 -71t-72.5 -83.5t-79 -83.5t-73.5 -71h-144v25q38 55 70 106.5t59 101t49 95.5h244z" />
    <glyph glyph-name="Scircumflex" unicode="&#x15c;" horiz-adv-x="869" 
d="M799 414q0 -128 -50 -226t-141 -153t-215 -55q-59 0 -114 7t-106 23t-100 41v226q74 -45 156.5 -68.5t153.5 -23.5q63 0 106 27.5t65 74.5t22 105q0 61 -18.5 104.5t-65 82t-129.5 84.5q-64 37 -116 75.5t-88.5 86t-56 111t-19.5 150.5q-2 119 46.5 209t137.5 139.5
t209 48.5q86 0 166.5 -22t147.5 -59l-64 -197q-66 38 -127.5 56.5t-115.5 18.5q-58 0 -98 -23.5t-61 -65t-21 -95.5q0 -64 19.5 -107t67 -80t130.5 -83q93 -52 155 -110.5t93 -131.5t31 -170zM556 1922q22 -46 53.5 -98.5t67 -106t70.5 -99.5v-24h-123q-39 36 -80 83
t-86 100q-45 -53 -88 -102t-77 -81h-124v24q34 44 70.5 99t68.5 109t52 96h196z" />
    <glyph glyph-name="scircumflex" unicode="&#x15d;" horiz-adv-x="727" 
d="M667 309q0 -106 -39.5 -179.5t-114 -111.5t-179.5 -38q-79 0 -147 17t-123 45v209q49 -36 117 -61t138 -25q67 0 102.5 35t35.5 99q0 38 -14.5 67.5t-51 59t-103.5 64.5q-68 40 -119 87t-78.5 108t-27.5 143q0 138 88 220t236 82q76 0 143 -20t129 -59l-65 -165
q-45 31 -95.5 50.5t-102.5 19.5q-61 0 -95.5 -32.5t-34.5 -87.5q0 -37 14.5 -64t52 -55.5t103.5 -68.5q69 -42 120.5 -87.5t81 -105.5t29.5 -146zM478 1569q22 -46 53.5 -98.5t67 -106t70.5 -99.5v-24h-123q-39 36 -80 83t-86 100q-45 -53 -88 -102t-77 -81h-124v24
q34 44 70.5 99t68.5 109t52 96h196z" />
    <glyph glyph-name="Scedilla" unicode="&#x15e;" horiz-adv-x="869" 
d="M799 414q0 -128 -50 -226t-141 -153t-215 -55q-59 0 -114 7t-106 23t-100 41v226q74 -45 156.5 -68.5t153.5 -23.5q63 0 106 27.5t65 74.5t22 105q0 61 -18.5 104.5t-65 82t-129.5 84.5q-64 37 -116 75.5t-88.5 86t-56 111t-19.5 150.5q-2 119 46.5 209t137.5 139.5
t209 48.5q86 0 166.5 -22t147.5 -59l-64 -197q-66 38 -127.5 56.5t-115.5 18.5q-58 0 -98 -23.5t-61 -65t-21 -95.5q0 -64 19.5 -107t67 -80t130.5 -83q93 -52 155 -110.5t93 -131.5t31 -170zM600 -274q0 -104 -64.5 -161t-182.5 -57q-40 0 -73.5 4.5t-58.5 10.5v130
q24 -7 48.5 -10.5t47.5 -3.5q57 0 86 24.5t29 65.5q0 48 -40.5 73.5t-111.5 32.5l70 165h115l-40 -93q56 -11 95 -35t59.5 -61t20.5 -85z" />
    <glyph glyph-name="scedilla" unicode="&#x15f;" horiz-adv-x="727" 
d="M667 309q0 -106 -39.5 -179.5t-114 -111.5t-179.5 -38q-79 0 -147 17t-123 45v209q49 -36 117 -61t138 -25q67 0 102.5 35t35.5 99q0 38 -14.5 67.5t-51 59t-103.5 64.5q-68 40 -119 87t-78.5 108t-27.5 143q0 138 88 220t236 82q76 0 143 -20t129 -59l-65 -165
q-45 31 -95.5 50.5t-102.5 19.5q-61 0 -95.5 -32.5t-34.5 -87.5q0 -37 14.5 -64t52 -55.5t103.5 -68.5q69 -42 120.5 -87.5t81 -105.5t29.5 -146zM529 -274q0 -104 -64.5 -161t-182.5 -57q-40 0 -73.5 4.5t-58.5 10.5v130q24 -7 48.5 -10.5t47.5 -3.5q57 0 86 24.5t29 65.5
q0 48 -40.5 73.5t-111.5 32.5l70 165h115l-40 -93q56 -11 95 -35t59.5 -61t20.5 -85z" />
    <glyph glyph-name="Scaron" unicode="&#x160;" horiz-adv-x="869" 
d="M799 414q0 -128 -50 -226t-141 -153t-215 -55q-59 0 -114 7t-106 23t-100 41v226q74 -45 156.5 -68.5t153.5 -23.5q63 0 106 27.5t65 74.5t22 105q0 61 -18.5 104.5t-65 82t-129.5 84.5q-64 37 -116 75.5t-88.5 86t-56 111t-19.5 150.5q-2 119 46.5 209t137.5 139.5
t209 48.5q86 0 166.5 -22t147.5 -59l-64 -197q-66 38 -127.5 56.5t-115.5 18.5q-58 0 -98 -23.5t-61 -65t-21 -95.5q0 -64 19.5 -107t67 -80t130.5 -83q93 -52 155 -110.5t93 -131.5t31 -170zM361 1594q-21 43 -53.5 97.5t-68.5 109.5t-69 97v24h124q36 -34 78.5 -82.5
t85.5 -100.5q49 59 85 98.5t81 84.5h123v-24q-30 -40 -66 -94t-69.5 -109.5t-55.5 -100.5h-195z" />
    <glyph glyph-name="scaron" unicode="&#x161;" horiz-adv-x="727" 
d="M667 309q0 -106 -39.5 -179.5t-114 -111.5t-179.5 -38q-79 0 -147 17t-123 45v209q49 -36 117 -61t138 -25q67 0 102.5 35t35.5 99q0 38 -14.5 67.5t-51 59t-103.5 64.5q-68 40 -119 87t-78.5 108t-27.5 143q0 138 88 220t236 82q76 0 143 -20t129 -59l-65 -165
q-45 31 -95.5 50.5t-102.5 19.5q-61 0 -95.5 -32.5t-34.5 -87.5q0 -37 14.5 -64t52 -55.5t103.5 -68.5q69 -42 120.5 -87.5t81 -105.5t29.5 -146zM283 1241q-21 43 -53.5 97.5t-68.5 109.5t-69 97v24h124q36 -34 78.5 -82.5t85.5 -100.5q49 59 85 98.5t81 84.5h123v-24
q-30 -40 -66 -94t-69.5 -109.5t-55.5 -100.5h-195z" />
    <glyph glyph-name="uni0162" unicode="&#x162;" horiz-adv-x="825" 
d="M521 0h-218v1269h-279v193h775v-193h-278v-1269zM596 -274q0 -104 -64.5 -161t-182.5 -57q-40 0 -73.5 4.5t-58.5 10.5v130q24 -7 48.5 -10.5t47.5 -3.5q57 0 86 24.5t29 65.5q0 48 -40.5 73.5t-111.5 32.5l70 165h115l-40 -93q56 -11 95 -35t59.5 -61t20.5 -85z" />
    <glyph glyph-name="uni0163" unicode="&#x163;" horiz-adv-x="584" 
d="M441 165q26 0 54.5 6.5t56.5 19.5v-170q-37 -19 -81.5 -30t-95.5 -11q-84 0 -137 35.5t-77.5 106.5t-24.5 179v633h-106v114l120 55l52 249h144v-243h193v-175h-193v-619q0 -76 20.5 -113t74.5 -37zM540 -274q0 -104 -64.5 -161t-182.5 -57q-40 0 -73.5 4.5t-58.5 10.5
v130q24 -7 48.5 -10.5t47.5 -3.5q57 0 86 24.5t29 65.5q0 48 -40.5 73.5t-111.5 32.5l70 165h115l-40 -93q56 -11 95 -35t59.5 -61t20.5 -85z" />
    <glyph glyph-name="Tcaron" unicode="&#x164;" horiz-adv-x="825" 
d="M521 0h-218v1269h-279v193h775v-193h-278v-1269zM316 1594q-21 43 -53.5 97.5t-68.5 109.5t-69 97v24h124q36 -34 78.5 -82.5t85.5 -100.5q49 59 85 98.5t81 84.5h123v-24q-30 -40 -66 -94t-69.5 -109.5t-55.5 -100.5h-195z" />
    <glyph glyph-name="tcaron" unicode="&#x165;" horiz-adv-x="584" 
d="M441 165q26 0 54.5 6.5t56.5 19.5v-170q-37 -19 -81.5 -30t-95.5 -11q-84 0 -137 35.5t-77.5 106.5t-24.5 179v633h-106v114l120 55l52 249h144v-243h193v-175h-193v-619q0 -76 20.5 -113t74.5 -37zM819 1556v-21q-11 -46 -31.5 -103t-45.5 -111t-49 -92h-128v24
q4 20 11 59t13.5 86t12 89.5t6.5 68.5h211z" />
    <glyph glyph-name="Tbar" unicode="&#x166;" horiz-adv-x="825" 
d="M303 0v644h-197v171h197v452h-279v195h775v-195h-278v-452h197v-171h-197v-644h-218z" />
    <glyph glyph-name="tbar" unicode="&#x167;" horiz-adv-x="584" 
d="M35 528v154h494v-154h-494zM441 165q26 0 54.5 6.5t56.5 19.5v-170q-37 -19 -81.5 -30t-95.5 -11q-84 0 -137 35.5t-77.5 106.5t-24.5 179v633h-106v114l120 55l52 249h144v-243h193v-175h-193v-619q0 -76 20.5 -113t74.5 -37z" />
    <glyph glyph-name="Utilde" unicode="&#x168;" horiz-adv-x="1106" 
d="M976 1462v-993q0 -167 -48.5 -275.5t-142.5 -161t-232 -52.5q-205 0 -313.5 119.5t-108.5 366.5v996h219v-992q0 -157 53 -225.5t151 -68.5q67 0 112 29.5t67.5 94.5t22.5 172v990h220zM236 1594q4 48 13 96.5t28.5 88.5t51.5 64t80 24q39 0 74.5 -16.5t69 -39t65 -39
t62.5 -16.5q30 0 45 30.5t23 82.5h122q-5 -133 -53 -203t-119 -70q-38 0 -75.5 17t-72.5 39t-65.5 39t-54.5 17q-25 0 -45 -28.5t-28 -85.5h-121z" />
    <glyph glyph-name="utilde" unicode="&#x169;" horiz-adv-x="975" 
d="M850 1109v-1109h-166l-23 150h-13q-24 -54 -59.5 -92t-82 -58t-103.5 -20q-97 0 -159.5 48.5t-92 139t-29.5 215.5v726h210v-671q0 -137 29.5 -203.5t93.5 -66.5q72 0 112 40.5t56.5 121.5t16.5 200v579h210zM171 1241q4 48 13 96.5t28.5 88.5t51.5 64t80 24
q39 0 74.5 -16.5t69 -39t65 -39t62.5 -16.5q30 0 45 30.5t23 82.5h122q-5 -133 -53 -203t-119 -70q-38 0 -75.5 17t-72.5 39t-65.5 39t-54.5 17q-25 0 -45 -28.5t-28 -85.5h-121z" />
    <glyph glyph-name="Umacron" unicode="&#x16a;" horiz-adv-x="1106" 
d="M976 1462v-993q0 -167 -48.5 -275.5t-142.5 -161t-232 -52.5q-205 0 -313.5 119.5t-108.5 366.5v996h219v-992q0 -157 53 -225.5t151 -68.5q67 0 112 29.5t67.5 94.5t22.5 172v990h220zM817 1771v-156h-527v156h527z" />
    <glyph glyph-name="umacron" unicode="&#x16b;" horiz-adv-x="975" 
d="M850 1109v-1109h-166l-23 150h-13q-24 -54 -59.5 -92t-82 -58t-103.5 -20q-97 0 -159.5 48.5t-92 139t-29.5 215.5v726h210v-671q0 -137 29.5 -203.5t93.5 -66.5q72 0 112 40.5t56.5 121.5t16.5 200v579h210zM753 1418v-156h-527v156h527z" />
    <glyph glyph-name="Ubreve" unicode="&#x16c;" horiz-adv-x="1106" 
d="M976 1462v-993q0 -167 -48.5 -275.5t-142.5 -161t-232 -52.5q-205 0 -313.5 119.5t-108.5 366.5v996h219v-992q0 -157 53 -225.5t151 -68.5q67 0 112 29.5t67.5 94.5t22.5 172v990h220zM823 1897q0 -93 -35.5 -160t-97 -103.5t-141.5 -36.5q-119 0 -191 75.5t-76 224.5
h132q4 -49 20.5 -81.5t46 -49t71.5 -16.5t72 15.5t47.5 48t21.5 83.5h130z" />
    <glyph glyph-name="ubreve" unicode="&#x16d;" horiz-adv-x="975" 
d="M850 1109v-1109h-166l-23 150h-13q-24 -54 -59.5 -92t-82 -58t-103.5 -20q-97 0 -159.5 48.5t-92 139t-29.5 215.5v726h210v-671q0 -137 29.5 -203.5t93.5 -66.5q72 0 112 40.5t56.5 121.5t16.5 200v579h210zM758 1544q0 -93 -35.5 -160t-97 -103.5t-141.5 -36.5
q-119 0 -191 75.5t-76 224.5h132q4 -49 20.5 -81.5t46 -49t71.5 -16.5t72 15.5t47.5 48t21.5 83.5h130z" />
    <glyph glyph-name="Uring" unicode="&#x16e;" horiz-adv-x="1106" 
d="M976 1462v-993q0 -167 -48.5 -275.5t-142.5 -161t-232 -52.5q-205 0 -313.5 119.5t-108.5 366.5v996h219v-992q0 -157 53 -225.5t151 -68.5q67 0 112 29.5t67.5 94.5t22.5 172v990h220zM552 1598q-102 0 -163 60.5t-61 157.5q0 98 61 158.5t163 60.5q100 0 163 -60
t63 -156q0 -97 -61.5 -159t-164.5 -62zM555 1717q44 0 73 27.5t29 72.5t-27.5 73.5t-74.5 28.5q-46 0 -75 -28.5t-29 -73.5t26 -72.5t78 -27.5z" />
    <glyph glyph-name="uring" unicode="&#x16f;" horiz-adv-x="975" 
d="M850 1109v-1109h-166l-23 150h-13q-24 -54 -59.5 -92t-82 -58t-103.5 -20q-97 0 -159.5 48.5t-92 139t-29.5 215.5v726h210v-671q0 -137 29.5 -203.5t93.5 -66.5q72 0 112 40.5t56.5 121.5t16.5 200v579h210zM488 1245q-102 0 -163 60.5t-61 157.5q0 98 61 158.5
t163 60.5q100 0 163 -60t63 -156q0 -97 -61.5 -159t-164.5 -62zM491 1364q44 0 73 27.5t29 72.5t-27.5 73.5t-74.5 28.5q-46 0 -75 -28.5t-29 -73.5t26 -72.5t78 -27.5z" />
    <glyph glyph-name="Uhungarumlaut" unicode="&#x170;" horiz-adv-x="1106" 
d="M976 1462v-993q0 -167 -48.5 -275.5t-142.5 -161t-232 -52.5q-205 0 -313.5 119.5t-108.5 366.5v996h219v-992q0 -157 53 -225.5t151 -68.5q67 0 112 29.5t67.5 94.5t22.5 172v990h220zM979 1922v-19q-15 -31 -45 -72.5t-67 -85.5t-74.5 -83.5t-68.5 -67.5h-108v25
q32 54 64 112.5t57.5 110t37.5 80.5h204zM667 1922v-19q-16 -33 -44.5 -73t-64.5 -82t-75 -81.5t-78 -72.5h-101v25q33 56 64.5 114.5t56.5 108t38 80.5h204z" />
    <glyph glyph-name="uhungarumlaut" unicode="&#x171;" horiz-adv-x="975" 
d="M850 1109v-1109h-166l-23 150h-13q-24 -54 -59.5 -92t-82 -58t-103.5 -20q-97 0 -159.5 48.5t-92 139t-29.5 215.5v726h210v-671q0 -137 29.5 -203.5t93.5 -66.5q72 0 112 40.5t56.5 121.5t16.5 200v579h210zM914 1569v-19q-15 -31 -45 -72.5t-67 -85.5t-74.5 -83.5
t-68.5 -67.5h-108v25q32 54 64 112.5t57.5 110t37.5 80.5h204zM602 1569v-19q-16 -33 -44.5 -73t-64.5 -82t-75 -81.5t-78 -72.5h-101v25q33 56 64.5 114.5t56.5 108t38 80.5h204z" />
    <glyph glyph-name="Uogonek" unicode="&#x172;" horiz-adv-x="1106" 
d="M654 -231q0 -44 23 -66t62 -22q20 0 43.5 5t35.5 10v-145q-25 -9 -59 -14t-65 -5q-106 0 -156.5 53t-50.5 149q0 50 19 96.5t53.5 89.5t81.5 82l208 83q-75 -76 -117.5 -132t-60 -100t-17.5 -84zM976 1462v-993q0 -167 -48.5 -275.5t-142.5 -161t-232 -52.5
q-205 0 -313.5 119.5t-108.5 366.5v996h219v-992q0 -157 53 -225.5t151 -68.5q67 0 112 29.5t67.5 94.5t22.5 172v990h220z" />
    <glyph glyph-name="uogonek" unicode="&#x173;" horiz-adv-x="975" 
d="M850 1109v-1109h-166l-23 150h-13q-24 -54 -59.5 -92t-82 -58t-103.5 -20q-97 0 -159.5 48.5t-92 139t-29.5 215.5v726h210v-671q0 -137 29.5 -203.5t93.5 -66.5q72 0 112 40.5t56.5 121.5t16.5 200v579h210zM703 -226q0 -45 23 -70.5t66 -25.5q24 0 40.5 4.5t28.5 10.5
v-140q-19 -8 -47.5 -14.5t-65.5 -6.5q-106 0 -159.5 52.5t-53.5 147.5q0 50 19 101.5t57 101t95 93.5l115 -28q-68 -69 -93 -120t-25 -106z" />
    <glyph glyph-name="Wcircumflex" unicode="&#x174;" horiz-adv-x="1522" 
d="M1516 1462l-294 -1462h-255l-163 826q-5 28 -10.5 62t-11 73.5t-11 85t-10.5 97.5q-4 -37 -8.5 -76.5t-10 -80t-12 -81t-13.5 -78.5l-162 -828h-253l-297 1462h218l159 -832q9 -49 17 -99t15.5 -99.5t13.5 -94t10 -82.5q6 47 13 97t15 98.5t16 93.5t15 82l168 836h193
l162 -834q8 -39 16 -83.5t15 -92t14 -97t13 -100.5q7 62 16 127t19.5 128.5t20.5 119.5l162 832h220zM859 1922q22 -46 53.5 -98.5t67 -106t70.5 -99.5v-24h-123q-39 36 -80 83t-86 100q-45 -53 -88 -102t-77 -81h-124v24q34 44 70.5 99t68.5 109t52 96h196z" />
    <glyph glyph-name="wcircumflex" unicode="&#x175;" horiz-adv-x="1311" 
d="M812 0l-117 622q-5 32 -10 65.5t-10 67.5t-9 67.5t-8 63.5h-6q-4 -33 -9 -67.5t-9.5 -68.5t-9.5 -66t-11 -61l-122 -623h-239l-237 1109h211l98 -501q10 -55 19.5 -115t17.5 -121t15 -120h6q4 37 9 76.5t11.5 83t14.5 90t18 95.5l102 512h238l101 -516q9 -49 18 -104.5
t17.5 -115t16.5 -121.5h7q3 40 8 84.5t12.5 94.5t16.5 102l116 576h207l-241 -1109h-242zM752 1569q22 -46 53.5 -98.5t67 -106t70.5 -99.5v-24h-123q-39 36 -80 83t-86 100q-45 -53 -88 -102t-77 -81h-124v24q34 44 70.5 99t68.5 109t52 96h196z" />
    <glyph glyph-name="Ycircumflex" unicode="&#x176;" horiz-adv-x="879" 
d="M441 814l210 648h228l-330 -896v-566h-219v560l-330 902h229zM537 1922q22 -46 53.5 -98.5t67 -106t70.5 -99.5v-24h-123q-39 36 -80 83t-86 100q-45 -53 -88 -102t-77 -81h-124v24q34 44 70.5 99t68.5 109t52 96h196z" />
    <glyph glyph-name="ycircumflex" unicode="&#x177;" horiz-adv-x="828" 
d="M9 1109h219l143 -592q9 -39 17.5 -78t15 -76t10.5 -73h8q6 50 17 105.5t27 120.5l137 593h217l-330 -1251q-33 -124 -77.5 -201t-105 -113t-142.5 -36q-29 0 -56.5 5t-56.5 12v186q20 -6 40.5 -10t39.5 -4q39 0 65.5 17.5t47 61.5t41.5 124l28 110zM511 1569
q22 -46 53.5 -98.5t67 -106t70.5 -99.5v-24h-123q-39 36 -80 83t-86 100q-45 -53 -88 -102t-77 -81h-124v24q34 44 70.5 99t68.5 109t52 96h196z" />
    <glyph glyph-name="Ydieresis" unicode="&#x178;" horiz-adv-x="879" 
d="M441 814l210 648h228l-330 -896v-566h-219v560l-330 902h229zM158 1734q0 59 29 88.5t75 29.5t74.5 -30.5t28.5 -87.5t-28.5 -87.5t-74.5 -30.5t-75 30t-29 88zM508 1734q0 59 29 88.5t75 29.5q47 0 76 -30.5t29 -87.5t-29 -87.5t-76 -30.5t-75.5 30.5t-28.5 87.5z" />
    <glyph glyph-name="Zacute" unicode="&#x179;" horiz-adv-x="804" 
d="M762 0h-712v163l463 1107h-454v192h690v-163l-463 -1104h476v-195zM703 1922v-19q-20 -31 -53 -71t-72.5 -83.5t-79 -83.5t-73.5 -71h-144v25q38 55 70 106.5t59 101t49 95.5h244z" />
    <glyph glyph-name="zacute" unicode="&#x17a;" horiz-adv-x="675" 
d="M634 0h-587v136l340 795h-319v178h551v-146l-332 -786h347v-177zM650 1569v-19q-20 -31 -53 -71t-72.5 -83.5t-79 -83.5t-73.5 -71h-144v25q38 55 70 106.5t59 101t49 95.5h244z" />
    <glyph glyph-name="Zdotaccent" unicode="&#x17b;" horiz-adv-x="804" 
d="M762 0h-712v163l463 1107h-454v192h690v-163l-463 -1104h476v-195zM425 1888q61 0 89.5 -35t28.5 -99q0 -62 -29.5 -96.5t-88.5 -34.5q-56 0 -87.5 34.5t-31.5 96.5q0 66 29.5 100t89.5 34z" />
    <glyph glyph-name="zdotaccent" unicode="&#x17c;" horiz-adv-x="675" 
d="M634 0h-587v136l340 795h-319v178h551v-146l-332 -786h347v-177zM370 1536q61 0 89.5 -35t28.5 -99q0 -62 -29.5 -96.5t-88.5 -34.5q-56 0 -87.5 34.5t-31.5 96.5q0 66 29.5 100t89.5 34z" />
    <glyph glyph-name="Zcaron" unicode="&#x17d;" horiz-adv-x="804" 
d="M762 0h-712v163l463 1107h-454v192h690v-163l-463 -1104h476v-195zM307 1594q-21 43 -53.5 97.5t-68.5 109.5t-69 97v24h124q36 -34 78.5 -82.5t85.5 -100.5q49 59 85 98.5t81 84.5h123v-24q-30 -40 -66 -94t-69.5 -109.5t-55.5 -100.5h-195z" />
    <glyph glyph-name="zcaron" unicode="&#x17e;" horiz-adv-x="675" 
d="M634 0h-587v136l340 795h-319v178h551v-146l-332 -786h347v-177zM253 1241q-21 43 -53.5 97.5t-68.5 109.5t-69 97v24h124q36 -34 78.5 -82.5t85.5 -100.5q49 59 85 98.5t81 84.5h123v-24q-30 -40 -66 -94t-69.5 -109.5t-55.5 -100.5h-195z" />
    <glyph glyph-name="longs" unicode="&#x17f;" horiz-adv-x="514" 
d="M448 1387q-55 0 -74.5 -47.5t-21.5 -163.5v-1176h-212v1164q0 134 26 223.5t85.5 134.5t158.5 45q49 0 92 -9t93 -29l-47 -162q-25 9 -51 14.5t-49 5.5z" />
    <glyph glyph-name="florin" unicode="&#x192;" horiz-adv-x="842" 
d="M571 1483q51 0 98 -10.5t104 -34.5l-51 -162q-29 13 -56 20t-54 7q-56 0 -78 -47t-22 -155v-116h188v-176h-188v-902q0 -133 -26.5 -222t-86.5 -133t-163 -44q-48 0 -85 6.5t-70 14.5v179q31 -9 60.5 -14t54.5 -5q58 0 82.5 45.5t24.5 141.5v933h-143v114l143 64v107
q0 136 28 222t87 126.5t153 40.5z" />
    <glyph glyph-name="Ohorn" unicode="&#x1a0;" horiz-adv-x="1184" 
d="M1071 733q0 -165 -28.5 -303t-87 -239t-151 -156t-219.5 -55q-129 0 -222 56t-152 157.5t-87 239.5t-28 302q0 248 55 414.5t164 250.5t270 84q121 0 212 -50t152 -151q38 31 57.5 71t27 90.5t8.5 111.5h194l13 -24q-14 -170 -70.5 -263.5t-159.5 -138.5q26 -80 39 -179
t13 -218zM324 733q0 -183 29.5 -307t87.5 -187t143 -63q86 0 143 61.5t86 185t29 310.5q0 279 -64.5 418t-192.5 139q-87 0 -145 -63t-87 -186.5t-29 -307.5z" />
    <glyph glyph-name="ohorn" unicode="&#x1a1;" horiz-adv-x="1021" 
d="M871 557q0 -183 -46.5 -312t-135 -197t-215.5 -68q-123 0 -211 68.5t-135 197.5t-47 311q0 279 102 426t294 147q90 0 162.5 -38t123.5 -112q42 16 65.5 57.5t34 102.5t11.5 133h192l14 -24q-11 -126 -42 -208.5t-83 -130t-124 -70.5q21 -60 30.5 -130.5t9.5 -152.5z
M294 555q0 -131 20 -219t61 -132.5t102 -44.5q63 0 102.5 44t58 132.5t18.5 221.5q0 130 -18.5 217.5t-58 131t-103.5 43.5q-96 0 -139 -97.5t-43 -296.5z" />
    <glyph glyph-name="Uhorn" unicode="&#x1af;" horiz-adv-x="1261" 
d="M976 1462v-204q58 8 89 50t42 107t11 141h193l14 -24q-9 -109 -35.5 -187t-69.5 -129t-104 -77t-140 -31v-590q0 -179 -48.5 -298.5t-142.5 -179.5t-232 -60q-205 0 -313.5 135t-108.5 398v949h219v-946q0 -174 53 -257t151 -83q67 0 112 36t67.5 111.5t22.5 194.5v944
h220z" />
    <glyph glyph-name="uhorn" unicode="&#x1b0;" horiz-adv-x="1132" 
d="M1179 1272l11 -25q-8 -109 -33 -186t-67.5 -126.5t-102 -76.5t-137.5 -34v-824h-166l-23 150h-14q-23 -54 -58.5 -92t-82 -58t-103.5 -20q-97 0 -159.5 49t-92 139t-29.5 215v726h210v-671q0 -137 29.5 -203.5t93.5 -66.5q97 0 141 86.5t44 295.5v559h210v-135
q54 11 83 52t40.5 105t11.5 141h194z" />
    <glyph glyph-name="uni01EA" unicode="&#x1ea;" horiz-adv-x="1166" 
d="M1071 733q0 -165 -28.5 -303t-87 -239t-151 -156t-219.5 -55q-129 0 -222 56t-152 157.5t-87 239.5t-28 302q0 248 55 414.5t164 250.5t270 84q170 0 277.5 -95t158 -264.5t50.5 -391.5zM324 733q0 -183 29.5 -307t87.5 -187t143 -63q86 0 143 61.5t86 185t29 310.5
q0 279 -64.5 418t-192.5 139q-87 0 -145 -63t-87 -186.5t-29 -307.5zM578 -226q0 -45 23 -70.5t66 -25.5q24 0 40.5 4.5t28.5 10.5v-140q-19 -8 -47.5 -14.5t-65.5 -6.5q-106 0 -159.5 52.5t-53.5 147.5q0 50 19 101.5t57 101t95 93.5l115 -28q-68 -69 -93 -120t-25 -106z
" />
    <glyph glyph-name="uni01EB" unicode="&#x1eb;" horiz-adv-x="951" 
d="M871 557q0 -124 -23 -229t-70.5 -183t-123 -121.5t-180.5 -43.5q-100 0 -174 43t-122.5 120.5t-72.5 183t-24 230.5q0 175 41.5 303.5t129.5 199t225 70.5q123 0 211.5 -66t135.5 -193.5t47 -313.5zM294 555q0 -130 19.5 -218t60 -132.5t103.5 -44.5t102.5 44t58 132
t18.5 221q0 130 -18.5 217.5t-58 131t-103.5 43.5q-96 0 -139 -97.5t-43 -296.5zM472 -226q0 -45 23 -70.5t66 -25.5q24 0 40.5 4.5t28.5 10.5v-140q-19 -8 -47.5 -14.5t-65.5 -6.5q-106 0 -159.5 52.5t-53.5 147.5q0 50 19 101.5t57 101t95 93.5l115 -28q-68 -69 -93 -120
t-25 -106z" />
    <glyph glyph-name="uni01EC" unicode="&#x1ec;" horiz-adv-x="1166" 
d="M1071 733q0 -165 -28.5 -303t-87 -239t-151 -156t-219.5 -55q-129 0 -222 56t-152 157.5t-87 239.5t-28 302q0 248 55 414.5t164 250.5t270 84q170 0 277.5 -95t158 -264.5t50.5 -391.5zM324 733q0 -183 29.5 -307t87.5 -187t143 -63q86 0 143 61.5t86 185t29 310.5
q0 279 -64.5 418t-192.5 139q-87 0 -145 -63t-87 -186.5t-29 -307.5zM848 1772v-156h-527v156h527zM578 -226q0 -45 23 -70.5t66 -25.5q24 0 40.5 4.5t28.5 10.5v-140q-19 -8 -47.5 -14.5t-65.5 -6.5q-106 0 -159.5 52.5t-53.5 147.5q0 50 19 101.5t57 101t95 93.5l115 -28
q-68 -69 -93 -120t-25 -106z" />
    <glyph glyph-name="uni01ED" unicode="&#x1ed;" horiz-adv-x="951" 
d="M871 557q0 -124 -23 -229t-70.5 -183t-123 -121.5t-180.5 -43.5q-100 0 -174 43t-122.5 120.5t-72.5 183t-24 230.5q0 175 41.5 303.5t129.5 199t225 70.5q123 0 211.5 -66t135.5 -193.5t47 -313.5zM294 555q0 -130 19.5 -218t60 -132.5t103.5 -44.5t102.5 44t58 132
t18.5 221q0 130 -18.5 217.5t-58 131t-103.5 43.5q-96 0 -139 -97.5t-43 -296.5zM739 1418v-156h-527v156h527zM471 -226q0 -45 23 -70.5t66 -25.5q24 0 40.5 4.5t28.5 10.5v-140q-19 -8 -47.5 -14.5t-65.5 -6.5q-106 0 -159.5 52.5t-53.5 147.5q0 50 19 101.5t57 101
t95 93.5l115 -28q-68 -69 -93 -120t-25 -106z" />
    <glyph glyph-name="uni01F0" unicode="&#x1f0;" horiz-adv-x="462" 
d="M79 -492q-29 0 -64.5 6.5t-54.5 14.5v183q19 -8 39 -12.5t38 -4.5q47 0 68 38.5t21 118.5v1257h210v-1258q0 -111 -29.5 -187.5t-86.5 -116t-141 -39.5zM135 1241q-21 43 -53.5 97.5t-68.5 109.5t-69 97v24h124q36 -34 78.5 -82.5t85.5 -100.5q49 59 85 98.5t81 84.5h123
v-24q-30 -40 -66 -94t-69.5 -109.5t-55.5 -100.5h-195z" />
    <glyph glyph-name="Aringacute" unicode="&#x1fa;" horiz-adv-x="992" 
d="M0 0l344 1309q-34 20 -55 55t-21 83q0 98 61.5 159t163.5 61q98 0 161.5 -61t63.5 -156q0 -51 -21 -86t-56 -55l351 -1309h-236l-85 358h-350l-83 -358h-238zM358 553h273l-99 419q-8 42 -16 85.5t-13.5 81.5t-8.5 61q-3 -19 -6 -42.5t-7 -49.5t-8.5 -52.5t-8.5 -50.5z
M494 1347q45 0 74 28t29 74q0 43 -28 71.5t-75 28.5q-45 0 -74.5 -28.5t-29.5 -71.5q0 -45 26.5 -73.5t77.5 -28.5zM372 1724v19q57 68 87.5 107t47.5 64.5t30 51.5h255v-14q-18 -23 -49.5 -53t-69.5 -62t-74.5 -61.5t-65.5 -51.5h-161z" />
    <glyph glyph-name="aringacute" unicode="&#x1fb;" horiz-adv-x="895" 
d="M466 1130q158 0 233 -99t75 -290v-741h-156l-33 153h-5q-30 -56 -67 -95t-84.5 -58.5t-110.5 -19.5q-89 0 -145 47.5t-82 124.5t-26 164q0 169 95.5 259t271.5 98l132 7v60q0 112 -32 165t-105 53q-47 0 -100.5 -17.5t-117.5 -54.5l-61 157q69 43 149.5 65t168.5 22z
M565 534l-88 -5q-101 -6 -150 -57t-49 -148q0 -89 31.5 -132t88.5 -43q77 0 122 74.5t45 203.5v107zM460 1526q-45 0 -74.5 -28.5t-29.5 -72.5q0 -46 26.5 -74t77.5 -28q45 0 74 28t29 73t-28 73.5t-75 28.5zM459 1642q65 0 117 -27t82 -75.5t30 -113.5q0 -96 -63 -158
t-166 -62q-102 0 -163 60.5t-61 158.5q0 97 61 157t163 60zM768 1960v-14q-25 -36 -75 -86.5t-101.5 -97t-82.5 -71.5h-163v20q50 65 80 107.5t49.5 75.5t36.5 66h256z" />
    <glyph glyph-name="AEacute" unicode="&#x1fc;" horiz-adv-x="1335" 
d="M1244 0h-618v411h-276l-116 -411h-239l442 1462h807v-192h-401v-413h375v-191h-375v-471h401v-195zM403 607h224v662h-39zM997 1922v-19q-20 -31 -53 -71t-72.5 -83.5t-79 -83.5t-73.5 -71h-144v25q38 55 70 106.5t59 101t49 95.5h244z" />
    <glyph glyph-name="aeacute" unicode="&#x1fd;" horiz-adv-x="1371" 
d="M938 1128q120 0 199 -63.5t118 -175t39 -256.5v-130h-528q3 -177 59 -264t168 -87q65 0 128 19t127 60v-178q-60 -37 -128 -55t-148 -18q-74 0 -138.5 24t-115 71.5t-80.5 116.5q-37 -73 -82.5 -119.5t-100.5 -69.5t-121 -23q-94 0 -153.5 47.5t-87.5 124.5t-28 165
q0 113 43 190t125.5 119t199.5 47l131 6v63q0 108 -33.5 162t-102.5 54q-47 0 -101 -17.5t-117 -54.5l-62 158q63 39 138 62.5t159 23.5q90 0 148.5 -35t90.5 -106q43 68 106 103.5t148 35.5zM565 534l-88 -5q-101 -6 -150 -55.5t-49 -149.5q0 -88 31 -131t89 -43
q51 0 88.5 33t58 94.5t20.5 145.5v111zM937 958q-74 0 -119.5 -71.5t-50.5 -225.5h331q0 88 -17.5 155t-53.5 104.5t-90 37.5zM998 1569v-19q-20 -31 -53 -71t-72.5 -83.5t-79 -83.5t-73.5 -71h-144v25q38 55 70 106.5t59 101t49 95.5h244z" />
    <glyph glyph-name="Oslashacute" unicode="&#x1fe;" horiz-adv-x="1169" 
d="M1074 733q0 -181 -31 -321t-92 -236t-152 -146t-212 -50q-75 0 -138.5 21.5t-115.5 62.5l-80 -166l-121 54l104 208q-74 109 -106 252t-32 323q0 248 55.5 414.5t164.5 250.5t269 84q77 0 143 -23.5t118 -70.5l79 155l119 -56l-100 -198q65 -95 96.5 -235t31.5 -323z
M851 733q0 91 -8 169t-24 139l-395 -788q30 -42 71.5 -62.5t90.5 -20.5q88 0 147 63t88.5 188t29.5 312zM323 733q0 -103 9.5 -185.5t28.5 -145.5l399 795q-32 50 -74.5 73.5t-97.5 23.5q-88 0 -147.5 -63.5t-88.5 -188t-29 -309.5zM890 1922v-19q-20 -31 -53 -71
t-72.5 -83.5t-79 -83.5t-73.5 -71h-144v25q38 55 70 106.5t59 101t49 95.5h244z" />
    <glyph glyph-name="oslashacute" unicode="&#x1ff;" horiz-adv-x="954" 
d="M873 557q0 -183 -46.5 -312t-135 -197t-215.5 -68q-53 0 -99 14t-85 41l-81 -166l-114 55l99 198q-59 84 -86 191.5t-27 243.5q0 279 102 426t295 147q54 0 100.5 -15.5t86.5 -47.5l71 140l114 -54l-86 -175q53 -75 80 -182t27 -239zM289 555q0 -68 5.5 -123t16.5 -96
l284 566q-22 28 -51 42t-65 14q-101 0 -145.5 -100.5t-44.5 -302.5zM669 557q0 63 -5.5 114t-13.5 90l-281 -562q21 -24 48.5 -36.5t59.5 -12.5q68 0 110 45.5t62 136t20 225.5zM782 1569v-19q-20 -31 -53 -71t-72.5 -83.5t-79 -83.5t-73.5 -71h-144v25q38 55 70 106.5
t59 101t49 95.5h244z" />
    <glyph glyph-name="uni0218" unicode="&#x218;" horiz-adv-x="869" 
d="M799 414q0 -128 -50 -226t-141 -153t-215 -55q-59 0 -114 7t-106 23t-100 41v226q74 -45 156.5 -68.5t153.5 -23.5q63 0 106 27.5t65 74.5t22 105q0 61 -18.5 104.5t-65 82t-129.5 84.5q-64 37 -116 75.5t-88.5 86t-56 111t-19.5 150.5q-2 119 46.5 209t137.5 139.5
t209 48.5q86 0 166.5 -22t147.5 -59l-64 -197q-66 38 -127.5 56.5t-115.5 18.5q-58 0 -98 -23.5t-61 -65t-21 -95.5q0 -64 19.5 -107t67 -80t130.5 -83q93 -52 155 -110.5t93 -131.5t31 -170zM528 -125v-21q-15 -51 -36.5 -105.5t-47.5 -106.5t-54 -95h-129v25q11 36 23 92
t22 113t13 98h209z" />
    <glyph glyph-name="uni0219" unicode="&#x219;" horiz-adv-x="727" 
d="M667 309q0 -106 -39.5 -179.5t-114 -111.5t-179.5 -38q-79 0 -147 17t-123 45v209q49 -36 117 -61t138 -25q67 0 102.5 35t35.5 99q0 38 -14.5 67.5t-51 59t-103.5 64.5q-68 40 -119 87t-78.5 108t-27.5 143q0 138 88 220t236 82q76 0 143 -20t129 -59l-65 -165
q-45 31 -95.5 50.5t-102.5 19.5q-61 0 -95.5 -32.5t-34.5 -87.5q0 -37 14.5 -64t52 -55.5t103.5 -68.5q69 -42 120.5 -87.5t81 -105.5t29.5 -146zM458 -125v-21q-15 -51 -36.5 -105.5t-47.5 -106.5t-54 -95h-129v25q11 36 23 92t22 113t13 98h209z" />
    <glyph glyph-name="uni021A" unicode="&#x21a;" horiz-adv-x="825" 
d="M521 0h-218v1269h-279v193h775v-193h-278v-1269zM532 -125v-21q-15 -51 -36.5 -105.5t-47.5 -106.5t-54 -95h-129v25q11 36 23 92t22 113t13 98h209z" />
    <glyph glyph-name="uni021B" unicode="&#x21b;" horiz-adv-x="584" 
d="M441 165q26 0 54.5 6.5t56.5 19.5v-170q-37 -19 -81.5 -30t-95.5 -11q-84 0 -137 35.5t-77.5 106.5t-24.5 179v633h-106v114l120 55l52 249h144v-243h193v-175h-193v-619q0 -76 20.5 -113t74.5 -37zM472 -125v-21q-15 -51 -36.5 -105.5t-47.5 -106.5t-54 -95h-129v25
q11 36 23 92t22 113t13 98h209z" />
    <glyph glyph-name="uni0237" unicode="&#x237;" horiz-adv-x="462" 
d="M79 -492q-29 0 -64.5 6.5t-54.5 14.5v183q19 -8 39 -12.5t38 -4.5q47 0 68 38.5t21 118.5v1257h210v-1258q0 -111 -29.5 -187.5t-86.5 -116t-141 -39.5z" />
    <glyph glyph-name="uni0259" unicode="&#x259;" horiz-adv-x="892" 
d="M402 1128q146 0 236.5 -71.5t132.5 -199t42 -298.5q0 -186 -42.5 -315.5t-126.5 -196.5t-207 -67q-119 0 -199 64t-120.5 175.5t-40.5 255.5v129h528q-2 178 -58.5 264t-171.5 86q-64 0 -125 -18.5t-128 -59.5v178q63 38 132 56t148 18zM605 448h-332q0 -86 18 -154
t53.5 -107.5t89.5 -39.5q75 0 120 72.5t51 228.5z" />
    <glyph glyph-name="uni02BC" unicode="&#x2bc;" horiz-adv-x="433" 
d="M355 1462l13 -22q-17 -92 -39.5 -178.5t-49 -167.5t-58.5 -157h-168q15 59 28.5 128.5t25.5 141t20.5 137.5t13.5 118h214z" />
    <glyph glyph-name="circumflex" unicode="&#x2c6;" horiz-adv-x="742" 
d="M469 1569q22 -46 53.5 -98.5t67 -106t70.5 -99.5v-24h-123q-39 36 -80 83t-86 100q-45 -53 -88 -102t-77 -81h-124v24q34 44 70.5 99t68.5 109t52 96h196z" />
    <glyph glyph-name="caron" unicode="&#x2c7;" horiz-adv-x="741" 
d="M273 1241q-21 43 -53.5 97.5t-68.5 109.5t-69 97v24h124q36 -34 78.5 -82.5t85.5 -100.5q49 59 85 98.5t81 84.5h123v-24q-30 -40 -66 -94t-69.5 -109.5t-55.5 -100.5h-195z" />
    <glyph glyph-name="macron" unicode="&#x2c9;" horiz-adv-x="691" 
d="M609 1418v-156h-527v156h527z" />
    <glyph glyph-name="breve" unicode="&#x2d8;" horiz-adv-x="705" 
d="M623 1544q0 -93 -35.5 -160t-97 -103.5t-141.5 -36.5q-119 0 -191 75.5t-76 224.5h132q4 -49 20.5 -81.5t46 -49t71.5 -16.5t72 15.5t47.5 48t21.5 83.5h130z" />
    <glyph glyph-name="dotaccent" unicode="&#x2d9;" horiz-adv-x="401" 
d="M201 1536q61 0 89.5 -35t28.5 -99q0 -62 -29.5 -96.5t-88.5 -34.5q-56 0 -87.5 34.5t-31.5 96.5q0 66 29.5 100t89.5 34z" />
    <glyph glyph-name="ring" unicode="&#x2da;" horiz-adv-x="614" 
d="M306 1245q-102 0 -163 60.5t-61 157.5q0 98 61 158.5t163 60.5q100 0 163 -60t63 -156q0 -97 -61.5 -159t-164.5 -62zM309 1364q44 0 73 27.5t29 72.5t-27.5 73.5t-74.5 28.5q-46 0 -75 -28.5t-29 -73.5t26 -72.5t78 -27.5z" />
    <glyph glyph-name="ogonek" unicode="&#x2db;" horiz-adv-x="490" 
d="M250 -226q0 -45 23 -70.5t66 -25.5q24 0 40.5 4.5t28.5 10.5v-140q-19 -8 -47.5 -14.5t-65.5 -6.5q-106 0 -159.5 52.5t-53.5 147.5q0 50 19 101.5t57 101t95 93.5l115 -28q-68 -69 -93 -120t-25 -106z" />
    <glyph glyph-name="tilde" unicode="&#x2dc;" horiz-adv-x="798" 
d="M82 1241q4 48 13 96.5t28.5 88.5t51.5 64t80 24q39 0 74.5 -16.5t69 -39t65 -39t62.5 -16.5q30 0 45 30.5t23 82.5h122q-5 -133 -53 -203t-119 -70q-38 0 -75.5 17t-72.5 39t-65.5 39t-54.5 17q-25 0 -45 -28.5t-28 -85.5h-121z" />
    <glyph glyph-name="hungarumlaut" unicode="&#x2dd;" horiz-adv-x="839" 
d="M757 1569v-19q-15 -31 -45 -72.5t-67 -85.5t-74.5 -83.5t-68.5 -67.5h-108v25q32 54 64 112.5t57.5 110t37.5 80.5h204zM445 1569v-19q-16 -33 -44.5 -73t-64.5 -82t-75 -81.5t-78 -72.5h-101v25q33 56 64.5 114.5t56.5 108t38 80.5h204z" />
    <glyph glyph-name="uni02F3" unicode="&#x2f3;" horiz-adv-x="766" 
d="M383 -553q-103 0 -163.5 60t-60.5 159q0 96 60 157.5t164 61.5q100 0 162.5 -61.5t62.5 -156.5q0 -96 -61 -158t-164 -62zM383 -436q45 0 74 28.5t29 73.5q0 44 -28 72t-75 28q-46 0 -75 -28t-29 -72q0 -45 26 -73.5t78 -28.5z" />
    <glyph glyph-name="gravecomb" unicode="&#x300;" 
d="M-570 1569q21 -46 52.5 -103t65.5 -110.5t60 -89.5v-25h-145q-29 26 -68 65t-79.5 84t-75 87t-55.5 73v19h245z" />
    <glyph glyph-name="acutecomb" unicode="&#x301;" 
d="M-160 1569v-19q-20 -31 -53 -71t-72.5 -83.5t-79 -83.5t-73.5 -71h-144v25q38 55 70 106.5t59 101t49 95.5h244z" />
    <glyph glyph-name="uni0302" unicode="&#x302;" 
d="M99 1569q22 -46 53.5 -98.5t67 -106t70.5 -99.5v-24h-123q-39 36 -80 83t-86 100q-45 -53 -88 -102t-77 -81h-124v24q34 44 70.5 99t68.5 109t52 96h196z" />
    <glyph glyph-name="tildecomb" unicode="&#x303;" 
d="M-860 1241q4 48 13 96.5t28.5 88.5t51.5 64t80 24q39 0 74.5 -16.5t69 -39t65 -39t62.5 -16.5q30 0 45 30.5t23 82.5h122q-5 -133 -53 -203t-119 -70q-38 0 -75.5 17t-72.5 39t-65.5 39t-54.5 17q-25 0 -45 -28.5t-28 -85.5h-121z" />
    <glyph glyph-name="uni0304" unicode="&#x304;" 
d="M263 1418v-156h-527v156h527z" />
    <glyph glyph-name="uni0306" unicode="&#x306;" 
d="M271 1544q0 -93 -35.5 -160t-97 -103.5t-141.5 -36.5q-119 0 -191 75.5t-76 224.5h132q4 -49 20.5 -81.5t46 -49t71.5 -16.5t72 15.5t47.5 48t21.5 83.5h130z" />
    <glyph glyph-name="uni0307" unicode="&#x307;" 
d="M12 1536q61 0 89.5 -35t28.5 -99q0 -62 -29.5 -96.5t-88.5 -34.5q-56 0 -87.5 34.5t-31.5 96.5q0 66 29.5 100t89.5 34z" />
    <glyph glyph-name="uni0308" unicode="&#x308;" 
d="M-279 1381q0 59 29 88.5t75 29.5t74.5 -30.5t28.5 -87.5t-28.5 -87.5t-74.5 -30.5t-75 30t-29 88zM71 1381q0 59 29 88.5t75 29.5q47 0 76 -30.5t29 -87.5t-29 -87.5t-76 -30.5t-75.5 30.5t-28.5 87.5z" />
    <glyph glyph-name="hookabovecomb" unicode="&#x309;" 
d="M-366 1495q0 -75 -38 -123.5t-115 -68.5l-12 -86h-110l-13 153q58 5 89.5 31.5t31.5 71.5q0 40 -24.5 61.5t-75.5 21.5q-22 0 -44 -4t-47 -12v132q30 11 63.5 16.5t71.5 5.5q108 0 165.5 -52t57.5 -147z" />
    <glyph glyph-name="uni030A" unicode="&#x30a;" 
d="M-1 1245q-102 0 -163 60.5t-61 157.5q0 98 61 158.5t163 60.5q100 0 163 -60t63 -156q0 -97 -61.5 -159t-164.5 -62zM2 1364q44 0 73 27.5t29 72.5t-27.5 73.5t-74.5 28.5q-46 0 -75 -28.5t-29 -73.5t26 -72.5t78 -27.5z" />
    <glyph glyph-name="uni030B" unicode="&#x30b;" 
d="M450 1569v-19q-15 -31 -45 -72.5t-67 -85.5t-74.5 -83.5t-68.5 -67.5h-108v25q32 54 64 112.5t57.5 110t37.5 80.5h204zM138 1569v-19q-16 -33 -44.5 -73t-64.5 -82t-75 -81.5t-78 -72.5h-101v25q33 56 64.5 114.5t56.5 108t38 80.5h204z" />
    <glyph glyph-name="uni030C" unicode="&#x30c;" 
d="M-97 1241q-21 43 -53.5 97.5t-68.5 109.5t-69 97v24h124q36 -34 78.5 -82.5t85.5 -100.5q49 59 85 98.5t81 84.5h123v-24q-30 -40 -66 -94t-69.5 -109.5t-55.5 -100.5h-195z" />
    <glyph glyph-name="uni030F" unicode="&#x30f;" 
d="M-488 1569q15 -34 40.5 -86t57 -109t60.5 -108v-25h-100q-35 29 -74.5 69t-76.5 83.5t-66 85t-44 71.5v19h203zM-800 1569q20 -45 44.5 -95t52.5 -102.5t58 -105.5v-25h-106q-30 28 -68 67.5t-75 84t-67 86t-45 71.5v19h206z" />
    <glyph glyph-name="uni0312" unicode="&#x312;" 
d="M-120 937l-13 23q19 93 41.5 180t49.5 168t59 154h166q-21 -85 -38.5 -178.5t-30 -183t-19.5 -163.5h-215z" />
    <glyph glyph-name="dotbelowcomb" unicode="&#x323;" 
d="M-581 -396q-58 0 -88.5 33.5t-30.5 97.5q0 66 29.5 99.5t89.5 33.5q61 0 89 -34t28 -99t-29.5 -98t-87.5 -33z" />
    <glyph glyph-name="uni0326" unicode="&#x326;" 
d="M125 -125v-21q-15 -51 -36.5 -105.5t-47.5 -106.5t-54 -95h-129v25q11 36 23 92t22 113t13 98h209z" />
    <glyph glyph-name="uni0327" unicode="&#x327;" 
d="M190 -274q0 -104 -64.5 -161t-182.5 -57q-40 0 -73.5 4.5t-58.5 10.5v130q24 -7 48.5 -10.5t47.5 -3.5q57 0 86 24.5t29 65.5q0 48 -40.5 73.5t-111.5 32.5l70 165h115l-40 -93q56 -11 95 -35t59.5 -61t20.5 -85z" />
    <glyph glyph-name="uni0328" unicode="&#x328;" 
d="M-15 -226q0 -45 23 -70.5t66 -25.5q24 0 40.5 4.5t28.5 10.5v-140q-19 -8 -47.5 -14.5t-65.5 -6.5q-106 0 -159.5 52.5t-53.5 147.5q0 50 19 101.5t57 101t95 93.5l115 -28q-68 -69 -93 -120t-25 -106z" />
    <glyph glyph-name="tonos" unicode="&#x384;" horiz-adv-x="1014" 
d="M416 1241v27q8 22 20 66t24 95t22 94.5t13 65.5h198v-23q-20 -50 -44 -106t-51 -112.5t-55 -106.5h-127z" />
    <glyph glyph-name="dieresistonos" unicode="&#x385;" horiz-adv-x="1004" 
d="M652 1645v-21q-11 -37 -29.5 -83.5t-42 -95.5t-48.5 -95h-102v25q11 49 20.5 98t15.5 94t7 78h179zM286 1469q44 0 71.5 -31.5t27.5 -88.5q0 -56 -27.5 -87.5t-71.5 -31.5t-72 31.5t-28 87.5q0 58 28 89t72 31zM716 1472q44 0 72.5 -31.5t28.5 -91.5q0 -54 -28.5 -85.5
t-72.5 -31.5q-43 0 -70.5 31.5t-27.5 87.5q0 59 27.5 90t70.5 31z" />
    <glyph glyph-name="Alphatonos" unicode="&#x386;" horiz-adv-x="1017" 
d="M784 0l-93 411h-336l-93 -411h-236l354 1462h278l360 -1462h-234zM654 607l-95 441q-8 43 -15 83.5t-13 78.5t-11 73q-3 -34 -8.5 -72t-13 -78t-16.5 -82l-93 -444h265zM-4 1203v27q8 22 20 66t24 95t22 94.5t13 65.5h198v-23q-20 -50 -44 -106t-51 -112.5t-55 -106.5
h-127z" />
    <glyph glyph-name="anoteleia" unicode="&#x387;" horiz-adv-x="488" 
d="M113 972q0 72 34 109.5t98 37.5q62 0 96.5 -36t34.5 -111q0 -72 -35.5 -109t-95.5 -37q-61 0 -96.5 37.5t-35.5 108.5z" />
    <glyph glyph-name="Epsilontonos" unicode="&#x388;" horiz-adv-x="1038" 
d="M949 0h-616v1462h616v-190h-396v-415h371v-191h-371v-471h396v-195zM-9 1181v27q8 22 20 66t24 95t22 94.5t13 65.5h198v-23q-20 -50 -44 -106t-51 -112.5t-55 -106.5h-127z" />
    <glyph glyph-name="Etatonos" unicode="&#x389;" horiz-adv-x="1330" 
d="M1190 0h-220v666h-413v-666h-220v1462h220v-602h413v602h220v-1462zM-10 1181v27q8 22 20 66t24 95t22 94.5t13 65.5h198v-23q-20 -50 -44 -106t-51 -112.5t-55 -106.5h-127z" />
    <glyph glyph-name="Iotatonos" unicode="&#x38a;" horiz-adv-x="690" 
d="M331 0v1462h220v-1462h-220zM-9 1181v27q8 22 20 66t24 95t22 94.5t13 65.5h198v-23q-20 -50 -44 -106t-51 -112.5t-55 -106.5h-127z" />
    <glyph glyph-name="Omicrontonos" unicode="&#x38c;" horiz-adv-x="1256" 
d="M1161 733q0 -165 -28.5 -303t-87 -239t-151 -156t-219.5 -55q-129 0 -222 56t-152 157.5t-87 239.5t-28 302q0 248 55 414.5t164 250.5t270 84q170 0 277.5 -95t158 -264.5t50.5 -391.5zM414 733q0 -183 29.5 -307t87.5 -187t143 -63q86 0 143 61.5t86 185t29 310.5
q0 279 -64.5 418t-192.5 139q-87 0 -145 -63t-87 -186.5t-29 -307.5zM-9 1181v27q8 22 20 66t24 95t22 94.5t13 65.5h198v-23q-20 -50 -44 -106t-51 -112.5t-55 -106.5h-127z" />
    <glyph glyph-name="Upsilontonos" unicode="&#x38e;" horiz-adv-x="1172" 
d="M735 814l210 648h228l-330 -896v-566h-219v560l-330 902h229zM-9 1181v27q8 22 20 66t24 95t22 94.5t13 65.5h198v-23q-20 -50 -44 -106t-51 -112.5t-55 -106.5h-127z" />
    <glyph glyph-name="Omegatonos" unicode="&#x38f;" horiz-adv-x="1275" 
d="M690 1290q-88 0 -148 -53t-90 -159.5t-30 -268.5q0 -141 20.5 -256t63 -204t107.5 -155v-194h-462v195h273q-70 61 -120.5 152.5t-78 213.5t-27.5 274q0 216 57.5 360t168 216.5t266.5 72.5q152 0 260.5 -73t166 -217.5t57.5 -358.5q0 -154 -27 -276t-77.5 -212.5
t-122.5 -151.5h277v-195h-466v194q71 68 113.5 157t62 203.5t19.5 256.5q0 157 -29 263.5t-87 161t-147 54.5zM-9 1181v27q8 22 20 66t24 95t22 94.5t13 65.5h198v-23q-20 -50 -44 -106t-51 -112.5t-55 -106.5h-127z" />
    <glyph glyph-name="iotadieresistonos" unicode="&#x390;" horiz-adv-x="561" 
d="M335 1109v-817q0 -67 19.5 -96.5t61.5 -29.5q29 0 60 8.5t53 20.5v-174q-36 -20 -79 -30.5t-92 -10.5q-80 0 -132 31.5t-76.5 99.5t-24.5 178v820h210zM398 1645v-21q-11 -37 -29.5 -83.5t-42 -95.5t-48.5 -95h-102v25q11 49 20.5 98t15.5 94t7 78h179zM32 1469
q44 0 71.5 -31.5t27.5 -88.5q0 -56 -27.5 -87.5t-71.5 -31.5t-72 31.5t-28 87.5q0 58 28 89t72 31zM462 1472q44 0 72.5 -31.5t28.5 -91.5q0 -54 -28.5 -85.5t-72.5 -31.5q-43 0 -70.5 31.5t-27.5 87.5q0 59 27.5 90t70.5 31z" />
    <glyph glyph-name="Alpha" unicode="&#x391;" horiz-adv-x="992" 
d="M758 0l-93 411h-336l-93 -411h-236l354 1462h278l360 -1462h-234zM628 607l-95 441q-8 43 -15 83.5t-13 78.5t-11 73q-3 -34 -8.5 -72t-13 -78t-16.5 -82l-93 -444h265z" />
    <glyph glyph-name="Beta" unicode="&#x392;" horiz-adv-x="1023" 
d="M141 1462h352q209 0 314 -87.5t105 -267.5q0 -90 -23.5 -159t-69 -113t-110.5 -60v-9q80 -20 131 -65t75.5 -114.5t24.5 -165.5q0 -128 -47 -222.5t-137 -146.5t-217 -52h-398v1462zM361 851h131q102 0 150 58t48 172q0 97 -50 148t-151 51h-128v-429zM361 672v-484h158
q97 0 146.5 61.5t49.5 186.5q0 78 -25 130t-72 79t-114 27h-143z" />
    <glyph glyph-name="Gamma" unicode="&#x393;" horiz-adv-x="794" 
d="M772 1462v-193h-411v-1269h-220v1462h631z" />
    <glyph glyph-name="uni0394" unicode="&#x394;" horiz-adv-x="982" 
d="M630 1462l330 -1324v-138h-936v145l327 1317h279zM714 195l-181 818q-8 38 -16.5 82.5t-16 87.5t-10.5 76q-6 -40 -13.5 -84t-15.5 -86t-16 -79l-177 -815h446z" />
    <glyph glyph-name="Epsilon" unicode="&#x395;" horiz-adv-x="846" 
d="M757 0h-616v1462h616v-190h-396v-415h371v-191h-371v-471h396v-195z" />
    <glyph glyph-name="Zeta" unicode="&#x396;" horiz-adv-x="804" 
d="M762 0h-712v163l463 1107h-454v192h690v-163l-463 -1104h476v-195z" />
    <glyph glyph-name="Eta" unicode="&#x397;" horiz-adv-x="1134" 
d="M994 0h-220v666h-413v-666h-220v1462h220v-602h413v602h220v-1462z" />
    <glyph glyph-name="Theta" unicode="&#x398;" horiz-adv-x="1166" 
d="M748 835v-182h-331v182h331zM1071 733q0 -165 -28.5 -303t-87 -239t-151 -156t-219.5 -55q-129 0 -222 56t-152 157.5t-87 239.5t-28 302q0 248 55 414.5t164 250.5t270 84q170 0 277.5 -95t158 -264.5t50.5 -391.5zM324 733q0 -183 29.5 -307t87.5 -187t143 -63
q86 0 143 61.5t86 185t29 310.5q0 279 -64.5 418t-192.5 139q-87 0 -145 -63t-87 -186.5t-29 -307.5z" />
    <glyph glyph-name="Iota" unicode="&#x399;" horiz-adv-x="501" 
d="M141 0v1462h220v-1462h-220z" />
    <glyph glyph-name="Kappa" unicode="&#x39a;" horiz-adv-x="974" 
d="M985 0h-245l-281 641l-98 -106v-535h-220v1462h220v-708q11 34 36.5 84.5t63.5 119.5l275 504h237l-361 -648z" />
    <glyph glyph-name="Lambda" unicode="&#x39b;" horiz-adv-x="973" 
d="M610 1462l363 -1462h-230l-216 940q-11 58 -20 107.5t-14.5 90.5t-7.5 72q-5 -44 -11.5 -88.5t-14.5 -89t-17 -89.5l-210 -943h-232l360 1462h250z" />
    <glyph glyph-name="Mu" unicode="&#x39c;" horiz-adv-x="1518" 
d="M665 0l-322 1161h-8q5 -67 7.5 -123.5t4 -101t1.5 -76.5v-860h-207v1462h306l310 -1108h6l310 1108h307v-1462h-212v859q0 36 1 80.5t3.5 99.5l5.5 121h-7l-323 -1160h-183z" />
    <glyph glyph-name="Nu" unicode="&#x39d;" horiz-adv-x="1212" 
d="M1073 0h-262l-469 1115h-8q5 -62 8 -118t4.5 -105t1.5 -92v-800h-207v1462h260l469 -1094h7q-4 64 -6.5 119.5t-4 104t-1.5 88.5v782h208v-1462z" />
    <glyph glyph-name="Xi" unicode="&#x39e;" horiz-adv-x="849" 
d="M79 0v195h693v-195h-693zM154 670v193h542v-193h-542zM104 1272v190h643v-190h-643z" />
    <glyph glyph-name="Omicron" unicode="&#x39f;" horiz-adv-x="1166" 
d="M1071 733q0 -165 -28.5 -303t-87 -239t-151 -156t-219.5 -55q-129 0 -222 56t-152 157.5t-87 239.5t-28 302q0 248 55 414.5t164 250.5t270 84q170 0 277.5 -95t158 -264.5t50.5 -391.5zM324 733q0 -183 29.5 -307t87.5 -187t143 -63q86 0 143 61.5t86 185t29 310.5
q0 279 -64.5 418t-192.5 139q-87 0 -145 -63t-87 -186.5t-29 -307.5z" />
    <glyph glyph-name="Pi" unicode="&#x3a0;" horiz-adv-x="1120" 
d="M141 0v1462h839v-1462h-219v1269h-400v-1269h-220z" />
    <glyph glyph-name="Rho" unicode="&#x3a1;" horiz-adv-x="950" 
d="M458 1462q219 0 324.5 -109.5t105.5 -330.5q0 -112 -27 -200t-81.5 -149.5t-136.5 -93.5t-194 -32h-88v-547h-220v1462h317zM444 1273h-83v-536h67q82 0 135 28.5t78.5 91t25.5 163.5q0 134 -54.5 193.5t-168.5 59.5z" />
    <glyph glyph-name="Sigma" unicode="&#x3a3;" horiz-adv-x="870" 
d="M60 0v181l331 583l-314 524v174h699v-190h-297q-31 0 -58.5 0.5t-51 2t-44.5 4.5l308 -514l-332 -580q42 4 82 7t79 3h351v-195h-753z" />
    <glyph glyph-name="Tau" unicode="&#x3a4;" horiz-adv-x="825" 
d="M521 0h-218v1269h-279v193h775v-193h-278v-1269z" />
    <glyph glyph-name="Upsilon" unicode="&#x3a5;" horiz-adv-x="879" 
d="M441 814l210 648h228l-330 -896v-566h-219v560l-330 902h229z" />
    <glyph glyph-name="Phi" unicode="&#x3a6;" horiz-adv-x="1365" 
d="M790 1483v-180q159 0 267.5 -70t164 -192t55.5 -280q0 -124 -31.5 -226.5t-93.5 -176t-153 -113.5t-209 -40v-225h-214v225q-118 -1 -209 38.5t-153 113.5t-94 176.5t-32 228.5q0 114 30.5 212.5t91 172.5t152 115.5t214.5 40.5v180h214zM576 1117q-89 0 -149.5 -40.5
t-91 -119t-30.5 -194.5q0 -126 31.5 -208.5t92 -123t147.5 -40.5v726zM789 1117v-726q88 0 148 42t91 125t31 205q0 117 -30.5 195.5t-91 118.5t-148.5 40z" />
    <glyph glyph-name="Chi" unicode="&#x3a7;" horiz-adv-x="887" 
d="M879 0h-236l-195 550l-210 -550h-229l316 754l-284 708h228l177 -509l178 509h231l-283 -713z" />
    <glyph glyph-name="Psi" unicode="&#x3a8;" horiz-adv-x="1377" 
d="M1258 1462v-478q0 -138 -25.5 -242.5t-80.5 -175t-143 -105.5t-213 -35v-426h-212v426q-125 0 -213 34t-142.5 102t-80 170t-25.5 239v491h219v-496q0 -108 19.5 -186t71.5 -119.5t151 -42.5v844h212v-844q88 1 141 35.5t77 110.5t24 200v498h220z" />
    <glyph glyph-name="uni03A9" unicode="&#x3a9;" horiz-adv-x="1178" 
d="M592 1290q-88 0 -148 -53t-90 -159.5t-30 -268.5q0 -141 20.5 -256t63 -204t107.5 -155v-194h-462v195h273q-70 61 -120.5 152.5t-78 213.5t-27.5 274q0 216 57.5 360t168 216.5t266.5 72.5q152 0 260.5 -73t166 -217.5t57.5 -358.5q0 -154 -27 -276t-77.5 -212.5
t-122.5 -151.5h277v-195h-466v194q71 68 113.5 157t62 203.5t19.5 256.5q0 157 -29 263.5t-87 161t-147 54.5z" />
    <glyph glyph-name="Iotadieresis" unicode="&#x3aa;" horiz-adv-x="501" 
d="M141 0v1462h220v-1462h-220zM-31 1724q0 59 29 88.5t75 29.5t74.5 -30.5t28.5 -87.5t-28.5 -87.5t-74.5 -30.5t-75 30t-29 88zM319 1724q0 59 29 88.5t75 29.5q47 0 76 -30.5t29 -87.5t-29 -87.5t-76 -30.5t-75.5 30.5t-28.5 87.5z" />
    <glyph glyph-name="Upsilondieresis" unicode="&#x3ab;" horiz-adv-x="879" 
d="M441 814l210 648h228l-330 -896v-566h-219v560l-330 902h229zM161 1716q0 59 29 88.5t75 29.5t74.5 -30.5t28.5 -87.5t-28.5 -87.5t-74.5 -30.5t-75 30t-29 88zM511 1716q0 59 29 88.5t75 29.5q47 0 76 -30.5t29 -87.5t-29 -87.5t-76 -30.5t-75.5 30.5t-28.5 87.5z" />
    <glyph glyph-name="alphatonos" unicode="&#x3ac;" horiz-adv-x="1022" 
d="M472 159q61 0 101.5 42.5t60.5 125t20 203.5v28q0 200 -45.5 293.5t-140.5 93.5q-90 0 -132 -102.5t-42 -294.5q0 -200 44 -294.5t134 -94.5zM408 -20q-156 0 -241 147t-85 423q0 284 90 432t249 148q89 0 150 -45t100 -133h10q9 45 24 87t32 70h178q-15 -51 -26.5 -116
t-17.5 -139t-6 -152v-400q0 -71 19 -106.5t55 -35.5q17 0 32 3t27 8v-170q-7 -5 -26 -10t-39.5 -8t-35.5 -3q-96 0 -148 41t-76 135h-14q-27 -56 -64.5 -95.5t-84.5 -60t-102 -20.5zM426 1241v27q8 22 20 66t24 95t22 94.5t13 65.5h198v-23q-20 -50 -44 -106t-51 -112.5
t-55 -106.5h-127z" />
    <glyph glyph-name="epsilontonos" unicode="&#x3ad;" horiz-adv-x="770" 
d="M562 660v-163h-76q-69 0 -113 -20.5t-64.5 -59.5t-20.5 -95q0 -53 21 -89t59.5 -54.5t90.5 -18.5q62 0 128 20.5t122 56.5v-188q-62 -37 -128.5 -53t-156.5 -16q-182 0 -265.5 91t-83.5 236q0 107 54 180t151 95v9q-79 28 -120 93.5t-41 157.5q0 87 40.5 151.5t114 100.5
t170.5 36q70 0 137.5 -18t137.5 -59l-76 -161q-44 29 -90.5 45t-89.5 16q-68 0 -103.5 -35t-35.5 -97q0 -82 43.5 -121.5t133.5 -39.5h61zM358 1241v27q8 22 20 66t24 95t22 94.5t13 65.5h198v-23q-20 -50 -44 -106t-51 -112.5t-55 -106.5h-127z" />
    <glyph glyph-name="etatonos" unicode="&#x3ae;" horiz-adv-x="975" 
d="M574 1130q90 0 152.5 -43t94.5 -128.5t32 -213.5v-1236h-210v1182q0 125 -29 187.5t-96 62.5q-64 0 -104.5 -38.5t-59.5 -122.5t-19 -221v-559h-210v1109h167l23 -151h13q24 54 60 92.5t83 59t103 20.5zM417 1241v27q8 22 20 66t24 95t22 94.5t13 65.5h198v-23
q-20 -50 -44 -106t-51 -112.5t-55 -106.5h-127z" />
    <glyph glyph-name="iotatonos" unicode="&#x3af;" horiz-adv-x="561" 
d="M335 1109v-817q0 -67 19.5 -96.5t61.5 -29.5q29 0 60 8.5t53 20.5v-174q-36 -20 -79 -30.5t-92 -10.5q-80 0 -132 31.5t-76.5 99.5t-24.5 178v820h210zM159 1241v27q8 22 20 66t24 95t22 94.5t13 65.5h198v-23q-20 -50 -44 -106t-51 -112.5t-55 -106.5h-127z" />
    <glyph glyph-name="upsilondieresistonos" unicode="&#x3b0;" horiz-adv-x="961" 
d="M480 -18q-129 2 -207.5 52t-114 160t-36.5 289v626h210v-646q0 -142 30 -218.5t120 -76.5q94 0 137.5 96.5t43.5 302.5q0 135 -14 266t-46 276h209q23 -109 36 -193t19 -165t6 -181q0 -293 -101.5 -440.5t-291.5 -147.5zM627 1645v-21q-11 -37 -29.5 -83.5t-42 -95.5
t-48.5 -95h-102v25q11 49 20.5 98t15.5 94t7 78h179zM261 1469q44 0 71.5 -31.5t27.5 -88.5q0 -56 -27.5 -87.5t-71.5 -31.5t-72 31.5t-28 87.5q0 58 28 89t72 31zM691 1472q44 0 72.5 -31.5t28.5 -91.5q0 -54 -28.5 -85.5t-72.5 -31.5q-43 0 -70.5 31.5t-27.5 87.5
q0 59 27.5 90t70.5 31z" />
    <glyph glyph-name="alpha" unicode="&#x3b1;" horiz-adv-x="1022" 
d="M472 159q61 0 101.5 42.5t60.5 125t20 203.5v28q0 200 -45.5 293.5t-140.5 93.5q-90 0 -132 -102.5t-42 -294.5q0 -200 44 -294.5t134 -94.5zM408 -20q-156 0 -241 147t-85 423q0 284 90 432t249 148q89 0 150 -45t100 -133h10q9 45 24 87t32 70h178q-15 -51 -26.5 -116
t-17.5 -139t-6 -152v-400q0 -71 19 -106.5t55 -35.5q17 0 32 3t27 8v-170q-7 -5 -26 -10t-39.5 -8t-35.5 -3q-96 0 -148 41t-76 135h-14q-27 -56 -64.5 -95.5t-84.5 -60t-102 -20.5z" />
    <glyph glyph-name="beta" unicode="&#x3b2;" horiz-adv-x="996" 
d="M503 1567q115 0 194 -48t120 -134t41 -201q0 -161 -52.5 -248t-159.5 -107v-8q142 -21 207.5 -119.5t65.5 -279.5q0 -137 -42.5 -236t-121.5 -152.5t-190 -53.5q-74 0 -129 17.5t-101 49.5v-538h-210v1625q0 138 45 234.5t129.5 147.5t203.5 51zM498 1386
q-53 0 -89.5 -30t-55 -89.5t-18.5 -146.5v-887q33 -29 84 -48t94 -19q97 0 145 69.5t48 207.5q0 90 -23.5 151.5t-69.5 93.5t-116 32h-42v182h31q85 0 123.5 62.5t38.5 188.5q0 115 -40 174t-110 59z" />
    <glyph glyph-name="gamma" unicode="&#x3b3;" horiz-adv-x="826" 
d="M817 1109l-278 -1059q-21 -84 -38 -179t-27 -188.5t-10 -173.5h-223q0 61 10 150t25 179.5t30 155.5l-299 1115h223l108 -445q17 -69 32 -135.5t27 -130t18 -124.5h7q6 57 17.5 117.5t26 127t29.5 139.5l106 451h216z" />
    <glyph glyph-name="delta" unicode="&#x3b4;" horiz-adv-x="950" 
d="M533 1565q90 0 171 -24t146 -64l-75 -174q-64 43 -123.5 62t-113.5 19q-66 0 -104 -30.5t-38 -84.5q0 -42 21 -81t65 -82.5t110 -99.5q93 -78 155 -159t93 -176.5t31 -218.5q0 -138 -46.5 -244.5t-135.5 -167t-218 -60.5q-131 0 -218 58.5t-130 162t-43 238.5
q0 115 36.5 210.5t105 165.5t165.5 108q-61 54 -105.5 107.5t-68.5 111.5t-24 122q0 146 95 223.5t249 77.5zM498 819q-66 -27 -112 -82.5t-69.5 -129.5t-23.5 -158q0 -82 20.5 -147.5t61 -104t98.5 -38.5q59 0 100 35t62.5 101.5t21.5 161.5q0 108 -38 196.5t-121 165.5z
" />
    <glyph glyph-name="epsilon" unicode="&#x3b5;" horiz-adv-x="770" 
d="M562 660v-163h-76q-69 0 -113 -20.5t-64.5 -59.5t-20.5 -95q0 -53 21 -89t59.5 -54.5t90.5 -18.5q62 0 128 20.5t122 56.5v-188q-62 -37 -128.5 -53t-156.5 -16q-182 0 -265.5 91t-83.5 236q0 107 54 180t151 95v9q-79 28 -120 93.5t-41 157.5q0 87 40.5 151.5t114 100.5
t170.5 36q70 0 137.5 -18t137.5 -59l-76 -161q-44 29 -90.5 45t-89.5 16q-68 0 -103.5 -35t-35.5 -97q0 -82 43.5 -121.5t133.5 -39.5h61z" />
    <glyph glyph-name="zeta" unicode="&#x3b6;" horiz-adv-x="756" 
d="M713 -87q0 -72 -32 -153.5t-80 -153.5h-214q32 45 59 94.5t43 94t16 72.5q0 34 -14 60t-50.5 49.5t-105.5 50.5q-91 37 -146.5 88.5t-81 135t-25.5 214.5q0 122 26 236t77.5 225.5t129.5 226.5t181 239q-23 -4 -49 -7.5t-55 -5.5t-62 -2h-211v179h593v-146
q-96 -113 -173 -226.5t-131.5 -228.5t-83.5 -233t-29 -243q0 -73 15 -123.5t57.5 -87.5t125.5 -72q60 -23 110 -58t80 -89t30 -136z" />
    <glyph glyph-name="eta" unicode="&#x3b7;" horiz-adv-x="975" 
d="M574 1130q90 0 152.5 -43t94.5 -128.5t32 -213.5v-1236h-210v1182q0 125 -29 187.5t-96 62.5q-64 0 -104.5 -38.5t-59.5 -122.5t-19 -221v-559h-210v1109h167l23 -151h13q24 54 60 92.5t83 59t103 20.5z" />
    <glyph glyph-name="theta" unicode="&#x3b8;" horiz-adv-x="979" 
d="M900 783q0 -269 -45.5 -447.5t-137 -267t-229.5 -88.5q-205 0 -305.5 198t-100.5 604q0 267 45.5 443.5t136.5 265t227 88.5q205 0 307 -197t102 -599zM488 154q96 0 144.5 137t52.5 413h-391q5 -274 51.5 -412t142.5 -138zM491 1405q-95 0 -141.5 -131.5t-52.5 -395.5
h390q-7 262 -54 394.5t-142 132.5z" />
    <glyph glyph-name="iota" unicode="&#x3b9;" horiz-adv-x="561" 
d="M335 1109v-817q0 -67 19.5 -96.5t61.5 -29.5q29 0 60 8.5t53 20.5v-174q-36 -20 -79 -30.5t-92 -10.5q-80 0 -132 31.5t-76.5 99.5t-24.5 178v820h210z" />
    <glyph glyph-name="kappa" unicode="&#x3ba;" horiz-adv-x="885" 
d="M866 1109l-278 -440l295 -669h-228l-210 508l-110 -124v-384h-210v1109h210v-280q0 -67 -2.5 -128.5t-8.5 -119.5h8q16 34 33 66t32 58l243 404h226z" />
    <glyph glyph-name="lambda" unicode="&#x3bb;" horiz-adv-x="897" 
d="M12 0l316 1078l-37 165q-14 66 -40.5 108t-84.5 42q-21 0 -38.5 -3.5t-34.5 -9.5v176q16 5 32.5 8.5t35 5t38.5 1.5q78 0 134.5 -31.5t97 -102t70.5 -188.5l228 -948q12 -49 26 -78.5t34 -42t47 -12.5q18 0 34 3t29 8v-184q-14 -5 -30.5 -8t-34 -5t-36.5 -2
q-72 0 -121.5 29t-83 92.5t-59.5 167.5l-73 320q-6 24 -10.5 48t-8 46.5t-7 44.5t-6.5 45h-8q-3 -33 -7.5 -63t-12.5 -58l-170 -652h-219z" />
    <glyph glyph-name="uni03BC" unicode="&#x3bc;" horiz-adv-x="977" 
d="M852 1109v-1109h-166l-23 151h-12q-18 -52 -46.5 -90.5t-64 -59.5t-75.5 -21q-48 0 -80 23.5t-53 72.5h-6q2 -35 4 -71t3 -71t1 -69v-356h-210v1600h210v-682q0 -128 29.5 -193.5t93.5 -65.5q72 0 112 45.5t56.5 131.5t16.5 205v559h210z" />
    <glyph glyph-name="nu" unicode="&#x3bd;" horiz-adv-x="875" 
d="M18 1109h218l136 -669q8 -41 15 -79t12.5 -71t8.5 -62h8q67 126 109 264t62 292t20 325h211q0 -217 -36 -406.5t-113 -362t-199 -340.5h-196z" />
    <glyph glyph-name="xi" unicode="&#x3be;" horiz-adv-x="758" 
d="M82 420q0 97 25 177t78 136.5t138 80.5v8q-66 14 -110 48.5t-65.5 92t-21.5 140.5q0 70 27 128t73 98.5t103 56.5q-27 -3 -51.5 -5t-46.5 -3t-45 -1h-87v179h582v-176h-68q-64 0 -115.5 -17.5t-88 -51.5t-55.5 -83t-19 -110q0 -113 50 -163t161 -50h91v-182h-99
q-78 0 -132 -29t-82 -89.5t-28 -154.5q0 -72 16.5 -119.5t58.5 -79.5t116 -58q74 -25 122.5 -63.5t73 -92.5t24.5 -128q0 -71 -33 -151.5t-80 -151.5h-215q35 46 61.5 96t42 94t15.5 71q0 37 -14.5 65t-47.5 50t-90 42q-94 33 -152 86t-85 130t-27 180z" />
    <glyph glyph-name="omicron" unicode="&#x3bf;" horiz-adv-x="951" 
d="M871 557q0 -124 -23 -229t-70.5 -183t-123 -121.5t-180.5 -43.5q-100 0 -174 43t-122.5 120.5t-72.5 183t-24 230.5q0 175 41.5 303.5t129.5 199t225 70.5q123 0 211.5 -66t135.5 -193.5t47 -313.5zM294 555q0 -130 19.5 -218t60 -132.5t103.5 -44.5t102.5 44t58 132
t18.5 221q0 130 -18.5 217.5t-58 131t-103.5 43.5q-96 0 -139 -97.5t-43 -296.5z" />
    <glyph glyph-name="pi" unicode="&#x3c0;" horiz-adv-x="1060" 
d="M929 169q20 0 43 5t43 15v-167q-28 -18 -69 -28t-85 -10q-110 0 -163.5 75.5t-53.5 229.5v641h-259v-930h-210v930h-163v93l116 86h892v-179h-164v-636q0 -66 18 -95.5t55 -29.5z" />
    <glyph glyph-name="rho" unicode="&#x3c1;" horiz-adv-x="973" 
d="M894 557q0 -173 -36 -302.5t-114.5 -202t-204.5 -72.5q-67 0 -119 23t-90 61h-11q7 -73 9 -142t2 -127v-286h-210v1055q0 175 39.5 302t125 195.5t224.5 68.5q125 0 210.5 -63.5t130 -190.5t44.5 -319zM504 949q-89 0 -132 -84t-43 -264v-367q30 -36 71 -55.5t89 -19.5
q98 0 144 95.5t46 302.5q0 206 -41.5 299t-133.5 93z" />
    <glyph glyph-name="uni03C2" unicode="&#x3c2;" horiz-adv-x="754" 
d="M484 1130q63 0 122 -16t114 -46l-59 -172q-43 25 -83 37t-84 12q-100 0 -149.5 -99.5t-49.5 -304.5q0 -98 14 -161.5t55 -105.5t122 -78q71 -29 121.5 -67t77 -91.5t26.5 -128.5q0 -72 -33 -152.5t-80 -150.5h-213q33 46 59.5 95.5t41.5 94t15 72.5q0 34 -12 61.5
t-45.5 52t-97.5 49.5q-72 29 -122.5 67t-82 94.5t-45.5 139.5t-14 201q0 198 45 330.5t135 199.5t222 67z" />
    <glyph glyph-name="sigma" unicode="&#x3c3;" horiz-adv-x="994" 
d="M878 493q0 -163 -48.5 -277.5t-138 -175t-212.5 -60.5q-129 0 -218 64t-134 185.5t-45 293.5q0 197 54 327t163.5 194.5t277.5 64.5h376v-179h-196q60 -85 90.5 -194t30.5 -243zM295 527q0 -125 21 -206.5t63 -121.5t101 -40q92 0 138 91.5t46 270.5q0 74 -9 142.5
t-28 135t-49 131.5h-41q-127 0 -184.5 -98t-57.5 -305z" />
    <glyph glyph-name="tau" unicode="&#x3c4;" horiz-adv-x="694" 
d="M658 1109v-179h-250v-591q0 -89 25.5 -132.5t79.5 -43.5q29 0 59 6.5t61 18.5v-171q-31 -18 -80 -29t-98 -11q-90 0 -147 37.5t-83.5 115t-26.5 197.5v603h-193v93l113 86h540z" />
    <glyph glyph-name="upsilon" unicode="&#x3c5;" horiz-adv-x="961" 
d="M480 -18q-129 2 -207.5 52t-114 160t-36.5 289v626h210v-646q0 -142 30 -218.5t120 -76.5q94 0 137.5 96.5t43.5 302.5q0 135 -14 266t-46 276h209q23 -109 36 -193t19 -165t6 -181q0 -293 -101.5 -440.5t-291.5 -147.5z" />
    <glyph glyph-name="phi" unicode="&#x3c6;" horiz-adv-x="1248" 
d="M279 1124l159 -100q-69 -97 -106 -219.5t-37 -253.5q0 -114 25 -195.5t74 -129t122 -61.5v572q0 197 73.5 294t224.5 97q117 0 196 -70.5t119 -191t40 -271.5q0 -169 -50.5 -301t-149.5 -212.5t-248 -95.5v-477h-205v477q-141 12 -238 82t-146.5 192.5t-49.5 293.5
q0 162 49 303t148 267zM813 948q-52 0 -72 -50t-20 -156v-577q72 8 124 61t80.5 146.5t28.5 220.5q1 112 -17.5 192t-50 122.5t-73.5 40.5z" />
    <glyph glyph-name="chi" unicode="&#x3c7;" horiz-adv-x="860" 
d="M144 1125q69 0 117 -26.5t82 -85t59 -155.5l57 -237l167 488h213l-302 -767l117 -459q22 -80 39 -122.5t38.5 -57.5t54.5 -15q19 0 35.5 3t32.5 7v-175q-24 -6 -52 -10.5t-67 -4.5q-68 0 -116.5 27t-83.5 89.5t-64 169.5l-70 286l-190 -571h-222l337 850l-115 434
q-23 83 -47.5 118t-65.5 35q-18 0 -36.5 -3t-31.5 -8v174q21 7 51 11.5t63 4.5z" />
    <glyph glyph-name="psi" unicode="&#x3c8;" horiz-adv-x="1241" 
d="M727 1555v-1387q75 9 121 55t66.5 136t20.5 229q0 127 -16 256.5t-50 264.5h206q38 -151 55 -275.5t17 -250.5q0 -188 -47 -319.5t-140.5 -202t-232.5 -78.5v-474h-205v474q-133 4 -223.5 62.5t-136 174.5t-45.5 294v595h210v-584q0 -114 19.5 -191t62.5 -118t113 -48
v1387h205z" />
    <glyph glyph-name="omega" unicode="&#x3c9;" horiz-adv-x="1257" 
d="M1069 1109q33 -98 53.5 -191t30.5 -186.5t10 -195.5q0 -176 -37 -300t-105.5 -190t-165.5 -66q-86 0 -143.5 49.5t-80.5 145.5h-6q-24 -96 -80.5 -145.5t-148.5 -49.5q-95 0 -162.5 66t-103.5 190t-36 300q0 104 9.5 196t30.5 184t54 193h211q-46 -130 -70.5 -271.5
t-24.5 -295.5q0 -186 28 -277t90 -91q38 0 61 30t33 94.5t10 166.5v273h203v-273q1 -104 11 -167.5t33 -93t62 -30.5q40 0 66 40.5t39 121.5t13 203q0 147 -23.5 292t-72.5 278h212z" />
    <glyph glyph-name="iotadieresis" unicode="&#x3ca;" horiz-adv-x="562" 
d="M336 1109v-817q0 -67 19.5 -96.5t61.5 -29.5q29 0 60 8.5t53 20.5v-174q-36 -20 -79 -30.5t-92 -10.5q-80 0 -132 31.5t-76.5 99.5t-24.5 178v820h210zM-30 1381q0 59 29 88.5t75 29.5t74.5 -30.5t28.5 -87.5t-28.5 -87.5t-74.5 -30.5t-75 30t-29 88zM320 1381
q0 59 29 88.5t75 29.5q47 0 76 -30.5t29 -87.5t-29 -87.5t-76 -30.5t-75.5 30.5t-28.5 87.5z" />
    <glyph glyph-name="upsilondieresis" unicode="&#x3cb;" horiz-adv-x="961" 
d="M480 -18q-129 2 -207.5 52t-114 160t-36.5 289v626h210v-646q0 -142 30 -218.5t120 -76.5q94 0 137.5 96.5t43.5 302.5q0 135 -14 266t-46 276h209q23 -109 36 -193t19 -165t6 -181q0 -293 -101.5 -440.5t-291.5 -147.5zM200 1381q0 59 29 88.5t75 29.5t74.5 -30.5
t28.5 -87.5t-28.5 -87.5t-74.5 -30.5t-75 30t-29 88zM550 1381q0 59 29 88.5t75 29.5q47 0 76 -30.5t29 -87.5t-29 -87.5t-76 -30.5t-75.5 30.5t-28.5 87.5z" />
    <glyph glyph-name="omicrontonos" unicode="&#x3cc;" horiz-adv-x="951" 
d="M871 557q0 -124 -23 -229t-70.5 -183t-123 -121.5t-180.5 -43.5q-100 0 -174 43t-122.5 120.5t-72.5 183t-24 230.5q0 175 41.5 303.5t129.5 199t225 70.5q123 0 211.5 -66t135.5 -193.5t47 -313.5zM294 555q0 -130 19.5 -218t60 -132.5t103.5 -44.5t102.5 44t58 132
t18.5 221q0 130 -18.5 217.5t-58 131t-103.5 43.5q-96 0 -139 -97.5t-43 -296.5zM382 1241v27q8 22 20 66t24 95t22 94.5t13 65.5h198v-23q-20 -50 -44 -106t-51 -112.5t-55 -106.5h-127z" />
    <glyph glyph-name="upsilontonos" unicode="&#x3cd;" horiz-adv-x="961" 
d="M480 -18q-129 2 -207.5 52t-114 160t-36.5 289v626h210v-646q0 -142 30 -218.5t120 -76.5q94 0 137.5 96.5t43.5 302.5q0 135 -14 266t-46 276h209q23 -109 36 -193t19 -165t6 -181q0 -293 -101.5 -440.5t-291.5 -147.5zM389 1241v27q8 22 20 66t24 95t22 94.5t13 65.5
h198v-23q-20 -50 -44 -106t-51 -112.5t-55 -106.5h-127z" />
    <glyph glyph-name="omegatonos" unicode="&#x3ce;" horiz-adv-x="1257" 
d="M1069 1109q33 -98 53.5 -191t30.5 -186.5t10 -195.5q0 -176 -37 -300t-105.5 -190t-165.5 -66q-86 0 -143.5 49.5t-80.5 145.5h-6q-24 -96 -80.5 -145.5t-148.5 -49.5q-95 0 -162.5 66t-103.5 190t-36 300q0 104 9.5 196t30.5 184t54 193h211q-46 -130 -70.5 -271.5
t-24.5 -295.5q0 -186 28 -277t90 -91q38 0 61 30t33 94.5t10 166.5v273h203v-273q1 -104 11 -167.5t33 -93t62 -30.5q40 0 66 40.5t39 121.5t13 203q0 147 -23.5 292t-72.5 278h212zM538 1241v27q8 22 20 66t24 95t22 94.5t13 65.5h198v-23q-20 -50 -44 -106t-51 -112.5
t-55 -106.5h-127z" />
    <glyph glyph-name="uni03D1" unicode="&#x3d1;" horiz-adv-x="1085" 
d="M525 1579q89 0 160 -38.5t124 -115t86 -190.5t45 -266h123v-180h-120q1 -16 1.5 -32t0.5 -33q-3 -182 -30 -320.5t-80.5 -233t-136.5 -142.5t-198 -48q-87 0 -152.5 22t-108.5 65t-65 104.5t-22 141.5q0 36 4.5 82.5t8 89.5t3.5 69q0 47 -15 66t-48 19q-11 0 -26 -3
t-33 -10l-33 169q26 12 66.5 21t90.5 9q95 0 150.5 -59t55.5 -170q0 -41 -3.5 -88.5t-7 -92t-3.5 -79.5q0 -89 33.5 -135.5t102.5 -46.5q76 0 126.5 58.5t77 184t29.5 325.5q0 18 -1 34.5t-1 32.5q-157 2 -277 54t-187 152t-67 245q0 98 35 174.5t107.5 120.5t184.5 44z
M523 1405q-58 0 -87 -43.5t-29 -125.5q0 -83 37.5 -143t109 -92t173.5 -32q-7 89 -21.5 167.5t-39 139t-60 95t-83.5 34.5z" />
    <glyph glyph-name="uni03D2" unicode="&#x3d2;" horiz-adv-x="882" 
d="M439 824q17 68 31.5 125.5t28.5 107t28 93t29 83.5q25 73 51.5 127.5t67 84.5t106.5 30q30 0 56 -5.5t49 -16.5v-182q-12 5 -23.5 7.5t-23.5 2.5q-33 0 -62 -41.5t-68 -140.5q-17 -44 -36 -101.5t-40 -126t-42.5 -145.5t-42.5 -159v-567h-219v561l-329 901h235z" />
    <glyph glyph-name="uni03D6" unicode="&#x3d6;" horiz-adv-x="1308" 
d="M1278 1109v-179h-165q21 -76 34.5 -147t20.5 -141t7 -146q0 -164 -36 -279.5t-103.5 -176t-162.5 -60.5q-85 0 -137.5 44t-75.5 140h-10q-24 -94 -75 -139t-140 -45q-144 0 -223.5 136t-79.5 380q0 78 7 148.5t22 140.5t36 145h-176v92l114 87h1143zM905 930h-502
q-21 -73 -34.5 -139t-20 -133t-6.5 -145q0 -174 27.5 -257.5t85.5 -83.5q57 0 77.5 72t20.5 241v185h204v-185q0 -116 8.5 -185t29.5 -98.5t58 -29.5q55 0 84 84.5t29 253.5q0 75 -6.5 143t-20 135.5t-34.5 141.5z" />
    <glyph glyph-name="uni0400" unicode="&#x400;" horiz-adv-x="846" 
d="M757 0h-616v1462h616v-190h-396v-415h371v-191h-371v-471h396v-195zM390 1903q21 -46 52.5 -103t65.5 -110.5t60 -89.5v-25h-145q-29 26 -68 65t-79.5 84t-75 87t-55.5 73v19h245z" />
    <glyph glyph-name="uni0401" unicode="&#x401;" horiz-adv-x="846" 
d="M757 0h-616v1462h616v-190h-396v-415h371v-191h-371v-471h396v-195zM164 1715q0 59 29 88.5t75 29.5t74.5 -30.5t28.5 -87.5t-28.5 -87.5t-74.5 -30.5t-75 30t-29 88zM514 1715q0 59 29 88.5t75 29.5q47 0 76 -30.5t29 -87.5t-29 -87.5t-76 -30.5t-75.5 30.5t-28.5 87.5z
" />
    <glyph glyph-name="uni0402" unicode="&#x402;" horiz-adv-x="1101" 
d="M717 -20q-32 0 -60.5 5.5t-54.5 14.5v191q18 -9 37 -14.5t38 -5.5q36 0 59 17t34 54t12 98v205q0 91 -39 133.5t-125 42.5h-127v-721h-219v1269h-248v193h735v-193h-268v-353h153q177 0 267 -95t90 -276v-191q-1 -182 -73.5 -278t-210.5 -96z" />
    <glyph glyph-name="uni0403" unicode="&#x403;" horiz-adv-x="794" 
d="M772 1462v-193h-411v-1269h-220v1462h631zM791 1903v-19q-20 -31 -53 -71t-72.5 -83.5t-79 -83.5t-73.5 -71h-144v25q38 55 70 106.5t59 101t49 95.5h244z" />
    <glyph glyph-name="uni0404" unicode="&#x404;" horiz-adv-x="969" 
d="M617 1291q-74 0 -126 -36t-85.5 -97t-52 -140t-26.5 -165h426v-193h-428q2 -102 21.5 -190.5t56.5 -155t93 -103.5t131 -37t135 22t114 51v-198q-57 -34 -127 -51.5t-149 -17.5q-158 0 -271 90t-173 258.5t-60 403.5q0 158 32.5 294.5t97 239.5t160.5 160.5t223 57.5
q83 0 161.5 -21.5t149.5 -65.5l-68 -183q-57 37 -114.5 57t-120.5 20z" />
    <glyph glyph-name="uni0405" unicode="&#x405;" horiz-adv-x="869" 
d="M799 414q0 -128 -50 -226t-141 -153t-215 -55q-59 0 -114 7t-106 23t-100 41v226q74 -45 156.5 -68.5t153.5 -23.5q63 0 106 27.5t65 74.5t22 105q0 61 -18.5 104.5t-65 82t-129.5 84.5q-64 37 -116 75.5t-88.5 86t-56 111t-19.5 150.5q-2 119 46.5 209t137.5 139.5
t209 48.5q86 0 166.5 -22t147.5 -59l-64 -197q-66 38 -127.5 56.5t-115.5 18.5q-58 0 -98 -23.5t-61 -65t-21 -95.5q0 -64 19.5 -107t67 -80t130.5 -83q93 -52 155 -110.5t93 -131.5t31 -170z" />
    <glyph glyph-name="uni0406" unicode="&#x406;" horiz-adv-x="501" 
d="M141 0v1462h220v-1462h-220z" />
    <glyph glyph-name="uni0407" unicode="&#x407;" horiz-adv-x="501" 
d="M141 0v1462h220v-1462h-220zM-31 1723q0 59 29 88.5t75 29.5t74.5 -30.5t28.5 -87.5t-28.5 -87.5t-74.5 -30.5t-75 30t-29 88zM319 1723q0 59 29 88.5t75 29.5q47 0 76 -30.5t29 -87.5t-29 -87.5t-76 -30.5t-75.5 30.5t-28.5 87.5z" />
    <glyph glyph-name="uni0408" unicode="&#x408;" horiz-adv-x="496" 
d="M37 -412q-39 0 -75.5 5t-68.5 17v191q25 -9 53.5 -15t60.5 -6q48 0 77 24.5t42.5 80.5t13.5 150v1427h219v-1432q0 -164 -37 -261t-109 -139t-176 -42z" />
    <glyph glyph-name="uni0409" unicode="&#x409;" horiz-adv-x="1475" 
d="M114 -17q-36 0 -64 5.5t-48 14.5v190q16 -9 33.5 -13.5t36.5 -4.5q35 0 57.5 21t36.5 62.5t24 100.5q9 53 21 149.5t26.5 236t30.5 319.5t33 398h593v-585h66q147 0 247 -47t151.5 -142t51.5 -240q0 -213 -115 -330.5t-326 -117.5h-289v1257h-185q-14 -174 -26.5 -317
t-23.5 -255.5t-21.5 -197t-19.5 -142.5t-18 -92q-23 -92 -55.5 -151.5t-83.5 -88.5t-133 -30zM893 191h67q113 0 170 64t57 188q0 83 -23.5 136.5t-74 80.5t-131.5 27h-65v-496z" />
    <glyph glyph-name="uni040A" unicode="&#x40a;" horiz-adv-x="1490" 
d="M141 0v1462h220v-594h335v594h215v-594h63q149 0 249.5 -46.5t151.5 -139.5t51 -234q0 -215 -116.5 -331.5t-325.5 -116.5h-288v677h-335v-677h-220zM910 191h66q112 0 169.5 63.5t57.5 188.5q0 80 -24 132t-74.5 77t-129.5 25h-65v-486z" />
    <glyph glyph-name="uni040B" unicode="&#x40b;" horiz-adv-x="1115" 
d="M759 1462v-193h-268v-353h154q176 0 266.5 -95t90.5 -276v-545h-221v545q0 91 -38.5 133.5t-123.5 42.5h-128v-721h-219v1269h-248v193h735z" />
    <glyph glyph-name="uni040C" unicode="&#x40c;" horiz-adv-x="966" 
d="M976 0h-246l-369 755v-755h-220v1462h220v-695l363 695h237l-385 -699zM859 1903v-19q-20 -31 -53 -71t-72.5 -83.5t-79 -83.5t-73.5 -71h-144v25q38 55 70 106.5t59 101t49 95.5h244z" />
    <glyph glyph-name="uni040D" unicode="&#x40d;" horiz-adv-x="1225" 
d="M141 1462h214v-780q0 -30 -1 -63t-2 -71.5t-3.5 -83.5t-5.5 -98h8l466 1096h269v-1462h-214v797q0 32 1 67.5t2.5 74.5t4.5 82.5t7 90.5h-8l-471 -1112h-267v1462zM565 1903q21 -46 52.5 -103t65.5 -110.5t60 -89.5v-25h-145q-29 26 -68 65t-79.5 84t-75 87t-55.5 73v19
h245z" />
    <glyph glyph-name="uni040E" unicode="&#x40e;" horiz-adv-x="887" 
d="M886 1462l-306 -1041q-46 -156 -97 -253.5t-121 -142.5t-176 -45q-39 0 -73.5 6.5t-66.5 18.5v194q29 -14 57 -21t57 -7q46 0 76.5 22.5t54.5 77.5t50 152l-339 1039h231l168 -570q10 -32 19 -66t17.5 -72t16.5 -82h11q6 41 12.5 74.5t14 66t17.5 67.5l148 582h229z
M762 1899q-8 -107 -46.5 -179.5t-106.5 -109t-166 -36.5q-101 0 -169 35.5t-104 107.5t-43 182h171q6 -105 39.5 -153t105.5 -48q71 0 105.5 49t41.5 152h172z" />
    <glyph glyph-name="uni040F" unicode="&#x40f;" horiz-adv-x="1120" 
d="M980 0h-313v-411h-213v411h-313v1462h220v-1267h400v1267h219v-1462z" />
    <glyph glyph-name="uni0410" unicode="&#x410;" horiz-adv-x="992" 
d="M758 0l-93 411h-336l-93 -411h-236l354 1462h278l360 -1462h-234zM628 607l-95 441q-8 43 -15 83.5t-13 78.5t-11 73q-3 -34 -8.5 -72t-13 -78t-16.5 -82l-93 -444h265z" />
    <glyph glyph-name="uni0411" unicode="&#x411;" horiz-adv-x="960" 
d="M141 0v1462h671v-193h-451v-392h84q148 0 248.5 -47t151 -142.5t50.5 -239.5q0 -214 -115 -331t-323 -117h-316zM361 191h88q111 0 169 63.5t58 188.5q0 83 -25 137t-75.5 80.5t-128.5 26.5h-86v-496z" />
    <glyph glyph-name="uni0412" unicode="&#x412;" horiz-adv-x="1023" 
d="M141 1462h352q209 0 314 -87.5t105 -267.5q0 -90 -23.5 -159t-69 -113t-110.5 -60v-9q80 -20 131 -65t75.5 -114.5t24.5 -165.5q0 -128 -47 -222.5t-137 -146.5t-217 -52h-398v1462zM361 851h131q102 0 150 58t48 172q0 97 -50 148t-151 51h-128v-429zM361 672v-484h158
q97 0 146.5 61.5t49.5 186.5q0 78 -25 130t-72 79t-114 27h-143z" />
    <glyph glyph-name="uni0413" unicode="&#x413;" horiz-adv-x="794" 
d="M772 1462v-193h-411v-1269h-220v1462h631z" />
    <glyph glyph-name="uni0414" unicode="&#x414;" horiz-adv-x="1129" 
d="M956 1462v-1267h136v-606h-212v411h-657v-411h-213v606h89q55 151 95.5 302t68 306.5t43 319t20.5 339.5h630zM736 1273h-210q-6 -147 -21.5 -288t-40 -275.5t-57.5 -263t-75 -251.5h404v1078z" />
    <glyph glyph-name="uni0415" unicode="&#x415;" horiz-adv-x="846" 
d="M757 0h-616v1462h616v-190h-396v-415h371v-191h-371v-471h396v-195z" />
    <glyph glyph-name="uni0416" unicode="&#x416;" horiz-adv-x="1377" 
d="M362 760l-368 702h236l352 -702v702h213v-702l354 702h233l-369 -702l374 -760h-240l-352 750v-750h-213v750l-354 -750h-238z" />
    <glyph glyph-name="uni0417" unicode="&#x417;" horiz-adv-x="932" 
d="M794 1125q0 -142 -65.5 -234.5t-190.5 -122.5v-8q142 -17 215 -109t73 -247q0 -126 -48 -221.5t-148 -149t-254 -53.5q-91 0 -172 16t-149 48v213q38 -25 88 -44t103.5 -29t101.5 -10q131 0 191.5 58.5t60.5 185.5q0 126 -70 186.5t-214 60.5h-114v192h109q90 0 148 24.5
t86 76.5t28 135q0 98 -49.5 147t-141.5 49q-67 0 -123 -25.5t-99 -70.5l-95 160q53 47 106.5 75.5t115.5 41.5t139 13q115 0 197 -44.5t126.5 -125t44.5 -188.5z" />
    <glyph glyph-name="uni0418" unicode="&#x418;" horiz-adv-x="1225" 
d="M141 1462h214v-780q0 -30 -1 -63t-2 -71.5t-3.5 -83.5t-5.5 -98h8l466 1096h269v-1462h-214v797q0 32 1 67.5t2.5 74.5t4.5 82.5t7 90.5h-8l-471 -1112h-267v1462z" />
    <glyph glyph-name="uni0419" unicode="&#x419;" horiz-adv-x="1225" 
d="M141 1462h214v-780q0 -30 -1 -63t-2 -71.5t-3.5 -83.5t-5.5 -98h8l466 1096h269v-1462h-214v797q0 32 1 67.5t2.5 74.5t4.5 82.5t7 90.5h-8l-471 -1112h-267v1462zM929 1899q-8 -107 -46.5 -179.5t-106.5 -109t-166 -36.5q-101 0 -169 35.5t-104 107.5t-43 182h171
q6 -105 39.5 -153t105.5 -48q71 0 105.5 49t41.5 152h172z" />
    <glyph glyph-name="uni041A" unicode="&#x41a;" horiz-adv-x="966" 
d="M976 0h-246l-369 755v-755h-220v1462h220v-695l363 695h237l-385 -699z" />
    <glyph glyph-name="uni041B" unicode="&#x41b;" horiz-adv-x="1084" 
d="M946 0h-220v1257h-231q-9 -117 -21 -249t-25 -259.5t-25.5 -232.5t-23.5 -169q-23 -128 -55.5 -208.5t-86.5 -118t-143 -37.5q-37 0 -65 5.5t-48 14.5v190q16 -9 33.5 -13.5t36.5 -4.5q38 0 61.5 24.5t40 85t30.5 167.5q8 65 19.5 175t25 247.5t27 288.5t25.5 299h645
v-1462z" />
    <glyph glyph-name="uni041C" unicode="&#x41c;" horiz-adv-x="1518" 
d="M665 0l-322 1161h-8q5 -67 7.5 -123.5t4 -101t1.5 -76.5v-860h-207v1462h306l310 -1108h6l310 1108h307v-1462h-212v859q0 36 1 80.5t3.5 99.5l5.5 121h-7l-323 -1160h-183z" />
    <glyph glyph-name="uni041D" unicode="&#x41d;" horiz-adv-x="1134" 
d="M994 0h-220v666h-413v-666h-220v1462h220v-602h413v602h220v-1462z" />
    <glyph glyph-name="uni041E" unicode="&#x41e;" horiz-adv-x="1166" 
d="M1071 733q0 -165 -28.5 -303t-87 -239t-151 -156t-219.5 -55q-129 0 -222 56t-152 157.5t-87 239.5t-28 302q0 248 55 414.5t164 250.5t270 84q170 0 277.5 -95t158 -264.5t50.5 -391.5zM324 733q0 -183 29.5 -307t87.5 -187t143 -63q86 0 143 61.5t86 185t29 310.5
q0 279 -64.5 418t-192.5 139q-87 0 -145 -63t-87 -186.5t-29 -307.5z" />
    <glyph glyph-name="uni041F" unicode="&#x41f;" horiz-adv-x="1120" 
d="M141 0v1462h839v-1462h-219v1269h-400v-1269h-220z" />
    <glyph glyph-name="uni0420" unicode="&#x420;" horiz-adv-x="950" 
d="M458 1462q219 0 324.5 -109.5t105.5 -330.5q0 -112 -27 -200t-81.5 -149.5t-136.5 -93.5t-194 -32h-88v-547h-220v1462h317zM444 1273h-83v-536h67q82 0 135 28.5t78.5 91t25.5 163.5q0 134 -54.5 193.5t-168.5 59.5z" />
    <glyph glyph-name="uni0421" unicode="&#x421;" horiz-adv-x="948" 
d="M615 1291q-76 0 -131 -43.5t-90.5 -121t-52.5 -179.5t-17 -218q0 -175 36 -299.5t104 -190t163 -65.5q65 0 123 19.5t111 46.5v-197q-56 -31 -121.5 -47t-142.5 -16q-157 0 -269 89t-172 257t-60 405q0 160 32 296.5t95.5 239.5t158.5 160t220 57q80 0 154 -20t143 -61
l-69 -183q-50 33 -103 52t-112 19z" />
    <glyph glyph-name="uni0422" unicode="&#x422;" horiz-adv-x="825" 
d="M521 0h-218v1269h-279v193h775v-193h-278v-1269z" />
    <glyph glyph-name="uni0423" unicode="&#x423;" horiz-adv-x="887" 
d="M886 1462l-306 -1041q-46 -156 -97 -253.5t-121 -142.5t-176 -45q-39 0 -73.5 6.5t-66.5 18.5v194q29 -14 57 -21t57 -7q46 0 76.5 22.5t54.5 77.5t50 152l-339 1039h231l168 -570q10 -32 19 -66t17.5 -72t16.5 -82h11q6 41 12.5 74.5t14 66t17.5 67.5l148 582h229z" />
    <glyph glyph-name="uni0424" unicode="&#x424;" horiz-adv-x="1365" 
d="M790 1483v-180q159 0 267.5 -70t164 -192t55.5 -280q0 -124 -31.5 -226.5t-93.5 -176t-153 -113.5t-209 -40v-225h-214v225q-118 -1 -209 38.5t-153 113.5t-94 176.5t-32 228.5q0 114 30.5 212.5t91 172.5t152 115.5t214.5 40.5v180h214zM576 1117q-89 0 -149.5 -40.5
t-91 -119t-30.5 -194.5q0 -126 31.5 -208.5t92 -123t147.5 -40.5v726zM789 1117v-726q88 0 148 42t91 125t31 205q0 117 -30.5 195.5t-91 118.5t-148.5 40z" />
    <glyph glyph-name="uni0425" unicode="&#x425;" horiz-adv-x="887" 
d="M879 0h-236l-195 550l-210 -550h-229l316 754l-284 708h228l177 -509l178 509h231l-283 -713z" />
    <glyph glyph-name="uni0426" unicode="&#x426;" horiz-adv-x="1186" 
d="M1143 195v-606h-212v411h-790v1462h220v-1267h413v1267h220v-1267h149z" />
    <glyph glyph-name="uni0427" unicode="&#x427;" horiz-adv-x="1079" 
d="M940 0h-220v580q-85 -43 -163.5 -64.5t-149.5 -21.5q-143 0 -218.5 97.5t-75.5 280.5v590h220v-539q0 -122 36.5 -178.5t113.5 -56.5q58 0 114.5 17.5t122.5 54.5v702h220v-1462z" />
    <glyph glyph-name="uni0428" unicode="&#x428;" horiz-adv-x="1607" 
d="M1466 0h-1325v1462h220v-1267h333v1267h219v-1267h334v1267h219v-1462z" />
    <glyph glyph-name="uni0429" unicode="&#x429;" horiz-adv-x="1657" 
d="M1616 195v-606h-212v411h-1263v1462h220v-1267h333v1267h219v-1267h334v1267h219v-1267h150z" />
    <glyph glyph-name="uni042A" unicode="&#x42a;" horiz-adv-x="1131" 
d="M308 0v1267h-278v195h496v-585h86q147 0 247.5 -47t152 -142t51.5 -240q0 -212 -115 -330t-325 -118h-315zM527 191h87q113 0 171 63.5t58 188.5q0 83 -25.5 137t-76 80.5t-128.5 26.5h-86v-496z" />
    <glyph glyph-name="uni042B" unicode="&#x42b;" horiz-adv-x="1437" 
d="M141 0v1462h220v-585h84q148 0 248.5 -47t151 -142.5t50.5 -239.5q0 -214 -115 -331t-325 -117h-314zM361 191h88q111 0 169 63.5t58 188.5q0 83 -25 137t-75.5 80.5t-128.5 26.5h-86v-496zM1079 0v1462h219v-1462h-219z" />
    <glyph glyph-name="uni042C" unicode="&#x42c;" horiz-adv-x="963" 
d="M141 0v1462h220v-585h84q148 0 248.5 -47t151 -142.5t50.5 -239.5q0 -214 -115 -331t-325 -117h-314zM361 191h88q111 0 169 63.5t58 188.5q0 83 -25 137t-75.5 80.5t-128.5 26.5h-86v-496z" />
    <glyph glyph-name="uni042D" unicode="&#x42d;" horiz-adv-x="969" 
d="M344 1291q-63 0 -118 -19t-108 -52l-69 182q71 42 147 62t166 20q116 1 210 -49t161.5 -146.5t103.5 -237.5t35 -322q0 -221 -56 -390t-169.5 -264t-286.5 -95q-76 0 -149 15.5t-127 45.5v199q57 -27 121.5 -46.5t131.5 -19.5q76 0 132 36.5t93.5 102.5t58 154.5
t23.5 192.5h-427v193h423q-6 83 -25.5 161t-54.5 140.5t-88.5 99.5t-127.5 37z" />
    <glyph glyph-name="uni042E" unicode="&#x42e;" horiz-adv-x="1562" 
d="M1465 733q0 -165 -26.5 -302.5t-81.5 -238.5t-141.5 -156.5t-207.5 -55.5q-138 0 -237.5 78.5t-155 231t-64.5 376.5h-190v-666h-220v1462h220v-603h194q12 207 67.5 345.5t153 209t233.5 70.5q150 0 251.5 -86t153 -253.5t51.5 -411.5zM772 733q0 -183 27 -307
t78.5 -187t126.5 -63q79 0 130.5 62t77 185.5t25.5 309.5q0 188 -26 311t-77 184.5t-127 61.5q-77 0 -129.5 -63t-79 -187t-26.5 -307z" />
    <glyph glyph-name="uni042F" unicode="&#x42f;" horiz-adv-x="992" 
d="M511 595l-251 -595h-242l297 646q-74 33 -122 91t-71.5 134.5t-23.5 165.5q0 213 110.5 319t330.5 106h314v-1462h-220v594zM632 1276h-84q-78 0 -127.5 -26.5t-72.5 -80.5t-23 -139q0 -133 51.5 -196t158.5 -63h97v505z" />
    <glyph glyph-name="uni0430" unicode="&#x430;" horiz-adv-x="896" 
d="M466 1130q158 0 233 -99t75 -290v-741h-156l-33 153h-5q-30 -56 -67 -95t-84.5 -58.5t-110.5 -19.5q-89 0 -145 47.5t-82 124.5t-26 164q0 169 95.5 259t271.5 98l132 7v60q0 112 -32 165t-105 53q-47 0 -100.5 -17.5t-117.5 -54.5l-61 157q69 43 149.5 65t168.5 22z
M565 534l-88 -5q-101 -6 -150 -57t-49 -148q0 -89 31.5 -132t88.5 -43q77 0 122 74.5t45 203.5v107z" />
    <glyph glyph-name="uni0431" unicode="&#x431;" horiz-adv-x="958" 
d="M87 693q0 195 30 349.5t107 264.5t216 169q62 32 164 56t244 37l21 -189q-42 -4 -97.5 -11.5t-112.5 -17.5t-105 -23.5t-76 -29.5q-67 -36 -105 -96t-55 -144t-22 -192h12q22 49 58 86t83 57.5t98 20.5q105 0 178.5 -57.5t112.5 -168.5t39 -273q0 -173 -46.5 -296.5
t-136.5 -189t-219 -65.5q-93 0 -165.5 41t-122 127t-75 221t-25.5 324zM479 159q61 0 102.5 39t62 117.5t20.5 195.5q0 170 -43 257.5t-132 87.5q-42 0 -80 -27.5t-66 -70t-42 -87.5q1 -123 11.5 -218.5t32.5 -161t55 -99t79 -33.5z" />
    <glyph glyph-name="uni0432" unicode="&#x432;" horiz-adv-x="918" 
d="M816 832q0 -97 -42.5 -160t-126.5 -84v-8q93 -15 145 -83t52 -173q0 -104 -40 -176.5t-119 -110t-196 -37.5h-364v1109h353q112 0 187.5 -31t113 -92.5t37.5 -153.5zM631 344q0 84 -39 120.5t-116 36.5h-141v-337h138q81 0 119.5 43.5t38.5 136.5zM605 807
q0 68 -36 103.5t-110 35.5h-124v-288h136q70 0 102 37.5t32 111.5z" />
    <glyph glyph-name="uni0433" unicode="&#x433;" horiz-adv-x="692" 
d="M670 1109v-180h-335v-929h-210v1109h545z" />
    <glyph glyph-name="uni0434" unicode="&#x434;" horiz-adv-x="989" 
d="M835 1109v-929h118v-571h-204v391h-526v-391h-206v571h91q53 128 89 280t57 317.5t26 331.5h555zM626 930h-165q-5 -122 -20 -247t-43 -251t-74 -252h302v750z" />
    <glyph glyph-name="uni0435" unicode="&#x435;" horiz-adv-x="892" 
d="M458 1128q119 0 199 -63.5t120 -175.5t40 -257v-129h-528q2 -176 58.5 -262.5t172.5 -86.5q65 0 125 18.5t127 60.5v-180q-62 -37 -131 -55t-148 -18q-146 0 -237 71.5t-132.5 199.5t-41.5 297q0 187 42 316t126 196.5t208 67.5zM461 960q-77 0 -121 -72t-49 -227h331
q0 86 -18 153.5t-53.5 106.5t-89.5 39z" />
    <glyph glyph-name="uni0436" unicode="&#x436;" horiz-adv-x="1283" 
d="M1254 1109l-301 -526l327 -583h-235l-300 571v-571h-207v571l-298 -571h-235l327 583l-301 526h227l280 -529v529h207v-529l282 529h227z" />
    <glyph glyph-name="uni0437" unicode="&#x437;" horiz-adv-x="769" 
d="M340 1130q97 0 168 -35t109 -99.5t38 -154.5q0 -88 -43.5 -155.5t-114.5 -92.5v-9q62 -15 106 -52t67.5 -93t23.5 -127q0 -98 -41.5 -172.5t-121 -117t-191.5 -42.5q-57 0 -106.5 8t-93 24.5t-85.5 42.5v190q56 -38 120.5 -62t135.5 -24q55 0 93 19.5t58 57t20 92.5
q0 51 -20.5 89t-63 59t-110.5 21h-77v163h69q82 0 125.5 40t43.5 121q0 67 -35 100.5t-99 33.5q-43 0 -88 -15t-92 -44l-75 158q73 41 140.5 58.5t139.5 17.5z" />
    <glyph glyph-name="uni0438" unicode="&#x438;" horiz-adv-x="1025" 
d="M328 1109v-541q0 -34 -0.5 -66t-2 -64.5t-4 -68t-5.5 -75.5l353 815h231v-1109h-201v535q0 46 1.5 92.5t4 93t5.5 94.5l-354 -815h-231v1109h203z" />
    <glyph glyph-name="uni0439" unicode="&#x439;" horiz-adv-x="1025" 
d="M328 1109v-541q0 -34 -0.5 -66t-2 -64.5t-4 -68t-5.5 -75.5l353 815h231v-1109h-201v535q0 46 1.5 92.5t4 93t5.5 94.5l-354 -815h-231v1109h203zM835 1561q-8 -107 -46.5 -179.5t-106.5 -109t-166 -36.5q-101 0 -169 35.5t-104 107.5t-43 182h171q6 -105 39.5 -153
t105.5 -48q71 0 105.5 49t41.5 152h172z" />
    <glyph glyph-name="uni043A" unicode="&#x43a;" horiz-adv-x="883" 
d="M627 1109h227l-311 -526l336 -583h-234l-310 572v-572h-210v1109h210v-528z" />
    <glyph glyph-name="uni043B" unicode="&#x43b;" horiz-adv-x="943" 
d="M818 0h-210v922h-189q-13 -247 -33 -424.5t-54 -291t-88.5 -167.5t-137.5 -54q-28 0 -53 5t-47 14v179q9 -6 22.5 -9.5t28.5 -3.5q31 0 54.5 36.5t42 110.5t32 186t23 263.5t16.5 342.5h593v-1109z" />
    <glyph glyph-name="uni043C" unicode="&#x43c;" horiz-adv-x="1235" 
d="M1112 1109v-1109h-201v561q0 55 4 130.5t11 163.5h-8l-218 -855h-167l-217 855h-8q5 -81 9 -157.5t4 -134.5v-563h-196v1109h296l196 -789l199 789h296z" />
    <glyph glyph-name="uni043D" unicode="&#x43d;" horiz-adv-x="982" 
d="M335 1109v-445h312v445h210v-1109h-210v484h-312v-484h-210v1109h210z" />
    <glyph glyph-name="uni043E" unicode="&#x43e;" horiz-adv-x="951" 
d="M871 557q0 -124 -23 -229t-70.5 -183t-123 -121.5t-180.5 -43.5q-100 0 -174 43t-122.5 120.5t-72.5 183t-24 230.5q0 175 41.5 303.5t129.5 199t225 70.5q123 0 211.5 -66t135.5 -193.5t47 -313.5zM294 555q0 -130 19.5 -218t60 -132.5t103.5 -44.5t102.5 44t58 132
t18.5 221q0 130 -18.5 217.5t-58 131t-103.5 43.5q-96 0 -139 -97.5t-43 -296.5z" />
    <glyph glyph-name="uni043F" unicode="&#x43f;" horiz-adv-x="982" 
d="M857 1109v-1109h-210v930h-312v-930h-210v1109h732z" />
    <glyph glyph-name="uni0440" unicode="&#x440;" horiz-adv-x="981" 
d="M576 1130q158 0 241.5 -147t83.5 -429q0 -181 -37.5 -309.5t-108.5 -196.5t-171 -68q-53 0 -100 20t-84 58t-64 93h-9q4 -52 6 -94t2 -74v-474h-210v1600h170l29 -154h11q31 64 67 102t79.5 55.5t94.5 17.5zM518 950q-62 0 -102.5 -39t-60.5 -119t-20 -205v-54
q0 -127 20 -209t61 -121.5t103 -39.5q56 0 93.5 42t56.5 128.5t19 218.5q0 200 -40 299t-130 99z" />
    <glyph glyph-name="uni0441" unicode="&#x441;" horiz-adv-x="760" 
d="M473 -20q-131 0 -218 63t-130 189t-43 316q0 176 42.5 306.5t130.5 203t223 72.5q72 0 130 -16t109 -46l-62 -170q-41 24 -81.5 35.5t-80.5 11.5q-64 0 -108 -45t-67 -132.5t-23 -218.5q0 -128 22.5 -214t67 -129.5t110.5 -43.5q51 0 102.5 17t102.5 49v-179
q-48 -35 -109 -52t-118 -17z" />
    <glyph glyph-name="uni0442" unicode="&#x442;" horiz-adv-x="714" 
d="M690 930h-227v-930h-210v930h-229v179h666v-179z" />
    <glyph glyph-name="uni0443" unicode="&#x443;" horiz-adv-x="828" 
d="M9 1109h219l143 -592q9 -39 17.5 -78t15 -76t10.5 -73h8q6 50 17 105.5t27 120.5l137 593h217l-330 -1251q-33 -124 -77.5 -201t-105 -113t-142.5 -36q-29 0 -56.5 5t-56.5 12v186q20 -6 40.5 -10t39.5 -4q39 0 65.5 17.5t47 61.5t41.5 124l28 110z" />
    <glyph glyph-name="uni0444" unicode="&#x444;" horiz-adv-x="1222" 
d="M716 1556v-438q143 -12 237.5 -88.5t142 -199.5t47.5 -275q0 -157 -47 -279.5t-142 -196.5t-238 -89v-482h-204v482q-135 11 -231.5 82.5t-147.5 194.5t-51 288q0 161 46 283t140.5 195t240.5 85v438h207zM509 941q-65 -7 -113.5 -56t-74.5 -133t-26 -197
q0 -103 23.5 -188.5t71.5 -138.5t119 -59v772zM716 941v-772q73 6 120 60.5t70.5 140t23.5 185.5q0 169 -58 271.5t-156 114.5z" />
    <glyph glyph-name="uni0445" unicode="&#x445;" horiz-adv-x="821" 
d="M283 570l-246 539h226l150 -371l150 371h225l-247 -545l258 -564h-226l-165 397l-163 -397h-222z" />
    <glyph glyph-name="uni0446" unicode="&#x446;" horiz-adv-x="1026" 
d="M993 -391h-206v391h-662v1109h210v-929h324v929h208v-929h126v-571z" />
    <glyph glyph-name="uni0447" unicode="&#x447;" horiz-adv-x="968" 
d="M308 1109v-427q0 -78 29 -114.5t81 -36.5q55 0 110 26t106 68v484h209v-1109h-209v455q-63 -51 -131.5 -77.5t-137.5 -26.5q-135 0 -200.5 83t-65.5 252v423h209z" />
    <glyph glyph-name="uni0448" unicode="&#x448;" horiz-adv-x="1402" 
d="M1277 1109v-1109h-1152v1109h210v-929h261v929h209v-929h261v929h211z" />
    <glyph glyph-name="uni0449" unicode="&#x449;" horiz-adv-x="1437" 
d="M1277 1109v-929h124v-571h-205v391h-1071v1109h210v-929h261v929h209v-929h261v929h211z" />
    <glyph glyph-name="uni044A" unicode="&#x44a;" horiz-adv-x="1010" 
d="M468 1109v-442h92q128 0 214 -36t129.5 -108.5t43.5 -182.5q0 -113 -43.5 -188.5t-125.5 -113.5t-200 -38h-320v923h-234v186h444zM565 504h-97v-340h98q85 0 128 42.5t43 123.5q0 85 -41.5 129.5t-130.5 44.5z" />
    <glyph glyph-name="uni044B" unicode="&#x44b;" horiz-adv-x="1288" 
d="M125 0v1109h210v-442h93q127 0 213 -36t129.5 -108.5t43.5 -182.5q0 -113 -43 -188.5t-126 -113.5t-202 -38h-318zM335 164h98q84 0 127 42.5t43 123.5q0 85 -41.5 129.5t-129.5 44.5h-97v-340zM953 0v1109h209v-1109h-209z" />
    <glyph glyph-name="uni044C" unicode="&#x44c;" horiz-adv-x="878" 
d="M335 667h93q127 0 213 -36t129.5 -108.5t43.5 -182.5q0 -113 -43 -188.5t-126 -113.5t-202 -38h-318v1109h210v-442zM603 330q0 85 -41.5 129.5t-129.5 44.5h-97v-340h98q84 0 127 42.5t43 123.5z" />
    <glyph glyph-name="uni044D" unicode="&#x44d;" horiz-adv-x="793" 
d="M300 -20q-67 0 -128 18t-107 51v177q54 -32 107 -50t109 -18q65 0 110 35.5t71.5 107.5t32.5 183h-291v164h289q-12 153 -62 229.5t-139 76.5q-44 0 -90.5 -14.5t-81.5 -37.5l-62 165q57 32 116 47.5t123 15.5q134 0 226.5 -67t141 -194.5t48.5 -313.5t-46.5 -314.5
t-138 -194.5t-228.5 -66z" />
    <glyph glyph-name="uni044E" unicode="&#x44e;" horiz-adv-x="1334" 
d="M1254 557q0 -185 -44.5 -314t-129.5 -196t-207 -67q-112 0 -191.5 53.5t-124.5 165t-56 285.5h-166v-484h-210v1109h210v-445h166q13 152 60.5 255.5t127.5 157t189 53.5q117 0 201.5 -67.5t129.5 -195.5t45 -310zM708 555q0 -131 18.5 -219t55.5 -132.5t93 -44.5
q57 0 93.5 44t54 132.5t17.5 221.5q0 130 -17.5 217.5t-54 131t-94.5 43.5t-94.5 -43t-54 -131t-17.5 -220z" />
    <glyph glyph-name="uni044F" unicode="&#x44f;" horiz-adv-x="892" 
d="M248 0h-227l258 465q-65 19 -110 62t-68 106t-23 144q0 159 95 245.5t264 86.5h330v-1109h-209v437h-90zM290 771q0 -82 45 -126t132 -44h91v345h-89q-88 0 -133.5 -46t-45.5 -129z" />
    <glyph glyph-name="uni0450" unicode="&#x450;" horiz-adv-x="892" 
d="M458 1128q119 0 199 -63.5t120 -175.5t40 -257v-129h-528q2 -176 58.5 -262.5t172.5 -86.5q65 0 125 18.5t127 60.5v-180q-62 -37 -131 -55t-148 -18q-146 0 -237 71.5t-132.5 199.5t-41.5 297q0 187 42 316t126 196.5t208 67.5zM461 960q-77 0 -121 -72t-49 -227h331
q0 86 -18 153.5t-53.5 106.5t-89.5 39zM405 1569q21 -46 52.5 -103t65.5 -110.5t60 -89.5v-25h-145q-29 26 -68 65t-79.5 84t-75 87t-55.5 73v19h245z" />
    <glyph glyph-name="uni0451" unicode="&#x451;" horiz-adv-x="892" 
d="M458 1128q119 0 199 -63.5t120 -175.5t40 -257v-129h-528q2 -176 58.5 -262.5t172.5 -86.5q65 0 125 18.5t127 60.5v-180q-62 -37 -131 -55t-148 -18q-146 0 -237 71.5t-132.5 199.5t-41.5 297q0 187 42 316t126 196.5t208 67.5zM461 960q-77 0 -121 -72t-49 -227h331
q0 86 -18 153.5t-53.5 106.5t-89.5 39zM176 1381q0 59 29 88.5t75 29.5t74.5 -30.5t28.5 -87.5t-28.5 -87.5t-74.5 -30.5t-75 30t-29 88zM526 1381q0 59 29 88.5t75 29.5q47 0 76 -30.5t29 -87.5t-29 -87.5t-76 -30.5t-75.5 30.5t-28.5 87.5z" />
    <glyph glyph-name="uni0452" unicode="&#x452;" horiz-adv-x="976" 
d="M598 -492q-28 0 -64 6.5t-56 14.5v183q21 -8 40 -12.5t37 -4.5q44 0 66 39.5t22 121.5v810q0 132 -30.5 191.5t-96.5 59.5q-60 0 -100.5 -37.5t-60.5 -122t-20 -223.5v-534h-210v1225h-119v156h119v175h211v-175h220v-156h-220v-122q0 -37 -4 -78t-12 -88h13
q21 54 56 91.5t81.5 57.5t101.5 20q95 0 157.5 -44.5t93.5 -130t31 -211.5v-871q0 -110 -29.5 -186t-86.5 -115.5t-140 -39.5z" />
    <glyph glyph-name="uni0453" unicode="&#x453;" horiz-adv-x="692" 
d="M670 1109v-180h-335v-929h-210v1109h545zM732 1569v-19q-20 -31 -53 -71t-72.5 -83.5t-79 -83.5t-73.5 -71h-144v25q38 55 70 106.5t59 101t49 95.5h244z" />
    <glyph glyph-name="uni0454" unicode="&#x454;" horiz-adv-x="794" 
d="M487 -20q-134 0 -224.5 65.5t-135.5 192.5t-45 312q0 181 45.5 310.5t138.5 199.5t233 70q64 0 124.5 -15.5t114.5 -47.5l-59 -165q-37 23 -83 37.5t-94 14.5q-59 0 -101.5 -34t-67.5 -102t-34 -170h291v-164h-291q6 -109 31 -181t70 -108.5t108 -36.5q55 0 108.5 18
t105.5 50v-177q-44 -33 -110.5 -51t-124.5 -18z" />
    <glyph glyph-name="uni0455" unicode="&#x455;" horiz-adv-x="727" 
d="M667 309q0 -106 -39.5 -179.5t-114 -111.5t-179.5 -38q-79 0 -147 17t-123 45v209q49 -36 117 -61t138 -25q67 0 102.5 35t35.5 99q0 38 -14.5 67.5t-51 59t-103.5 64.5q-68 40 -119 87t-78.5 108t-27.5 143q0 138 88 220t236 82q76 0 143 -20t129 -59l-65 -165
q-45 31 -95.5 50.5t-102.5 19.5q-61 0 -95.5 -32.5t-34.5 -87.5q0 -37 14.5 -64t52 -55.5t103.5 -68.5q69 -42 120.5 -87.5t81 -105.5t29.5 -146z" />
    <glyph glyph-name="uni0456" unicode="&#x456;" horiz-adv-x="462" 
d="M336 1109v-1109h-209v1109h209zM233 1536q61 0 89 -35t28 -99q0 -62 -29.5 -96.5t-87.5 -34.5q-57 0 -88.5 34.5t-31.5 96.5q0 66 30 100t90 34z" />
    <glyph glyph-name="uni0457" unicode="&#x457;" horiz-adv-x="461" 
d="M336 0h-210v1109h210v-1109zM-49 1382q0 59 29 88.5t75 29.5t74.5 -30.5t28.5 -87.5t-28.5 -87.5t-74.5 -30.5t-75 30t-29 88zM301 1382q0 59 29 88.5t75 29.5q47 0 76 -30.5t29 -87.5t-29 -87.5t-76 -30.5t-75.5 30.5t-28.5 87.5z" />
    <glyph glyph-name="uni0458" unicode="&#x458;" horiz-adv-x="462" 
d="M79 -492q-32 0 -62 5.5t-57 15.5v183q19 -8 39 -12.5t38 -4.5q47 0 68 39.5t21 123.5v1251h210v-1258q0 -118 -30 -193.5t-87.5 -111.5t-139.5 -38zM113 1402q0 66 30 100t90 34t88.5 -35t28.5 -99q0 -62 -29.5 -96.5t-87.5 -34.5q-57 0 -88.5 34.5t-31.5 96.5z" />
    <glyph glyph-name="uni0459" unicode="&#x459;" horiz-adv-x="1335" 
d="M794 1109v-442h93q127 0 213 -36t129.5 -108.5t43.5 -182.5q0 -113 -43.5 -188.5t-126 -113.5t-200.5 -38h-314v922h-170q-13 -247 -32.5 -424.5t-52.5 -291t-88 -167.5t-140 -54q-28 0 -53 5t-47 14v179q9 -6 22.5 -9.5t28.5 -3.5q31 0 55 35t42 107t31.5 183.5
t23 264.5t16.5 349h569zM891 504h-97v-340h96q85 0 128 42.5t43 123.5q0 85 -41 129.5t-129 44.5z" />
    <glyph glyph-name="uni045A" unicode="&#x45a;" horiz-adv-x="1383" 
d="M843 1109v-442h92q128 0 214 -36t129.5 -108.5t43.5 -182.5q0 -113 -43.5 -188.5t-126 -113.5t-200.5 -38h-315v488h-302v-488h-210v1109h210v-442h302v442h206zM938 504h-95v-340h95q85 0 128 42.5t43 123.5q0 85 -41.5 129.5t-129.5 44.5z" />
    <glyph glyph-name="uni045B" unicode="&#x45b;" horiz-adv-x="976" 
d="M336 1556v-175h220v-156h-220v-122q0 -37 -4 -78t-12 -88h13q21 54 56 91.5t81.5 57.5t101.5 20q95 0 157.5 -44.5t93.5 -130t31 -211.5v-720h-211v666q0 132 -30.5 191.5t-96.5 59.5q-62 0 -102.5 -37.5t-59.5 -122t-19 -223.5v-534h-210v1225h-119v156h119v175h211z
" />
    <glyph glyph-name="uni045C" unicode="&#x45c;" horiz-adv-x="883" 
d="M627 1109h227l-311 -526l336 -583h-234l-310 572v-572h-210v1109h210v-528zM795 1569v-19q-20 -31 -53 -71t-72.5 -83.5t-79 -83.5t-73.5 -71h-144v25q38 55 70 106.5t59 101t49 95.5h244z" />
    <glyph glyph-name="uni045D" unicode="&#x45d;" horiz-adv-x="1025" 
d="M328 1109v-541q0 -34 -0.5 -66t-2 -64.5t-4 -68t-5.5 -75.5l353 815h231v-1109h-201v535q0 46 1.5 92.5t4 93t5.5 94.5l-354 -815h-231v1109h203zM422 1569q21 -46 52.5 -103t65.5 -110.5t60 -89.5v-25h-145q-29 26 -68 65t-79.5 84t-75 87t-55.5 73v19h245z" />
    <glyph glyph-name="uni045E" unicode="&#x45e;" horiz-adv-x="828" 
d="M9 1109h219l143 -592q9 -39 17.5 -78t15 -76t10.5 -73h8q6 50 17 105.5t27 120.5l137 593h217l-330 -1251q-33 -124 -77.5 -201t-105 -113t-142.5 -36q-29 0 -56.5 5t-56.5 12v186q20 -6 40.5 -10t39.5 -4q39 0 65.5 17.5t47 61.5t41.5 124l28 110zM735 1561
q-8 -107 -46.5 -179.5t-106.5 -109t-166 -36.5q-101 0 -169 35.5t-104 107.5t-43 182h171q6 -105 39.5 -153t105.5 -48q71 0 105.5 49t41.5 152h172z" />
    <glyph glyph-name="uni045F" unicode="&#x45f;" horiz-adv-x="982" 
d="M389 0h-264v1109h210v-929h312v929h210v-1109h-264v-391h-204v391z" />
    <glyph glyph-name="uni0460" unicode="&#x460;" horiz-adv-x="1523" 
d="M348 0q-74 181 -130.5 365t-96.5 368.5t-63 367.5t-30 361h227q2 -139 17 -288.5t40.5 -302t61.5 -300t80 -281.5h6q11 62 30.5 134t39.5 136l117 409q-11 83 -20 164.5t-13.5 163t-5.5 165.5h221q2 -143 14 -291t36.5 -297t63 -296t92.5 -289h5q74 182 123.5 380
t77.5 399.5t36 393.5h223q-16 -228 -59.5 -473.5t-121 -495.5t-195.5 -493h-172q-34 78 -66 159t-60 162t-52 160.5t-43 156.5l-178 -638h-205z" />
    <glyph glyph-name="uni0461" unicode="&#x461;" horiz-adv-x="1375" 
d="M1314 1109q-7 -190 -45.5 -386t-100.5 -380.5t-138 -342.5h-189q-30 71 -62 158t-59.5 176.5t-44.5 164.5l-177 -499h-190q-62 135 -108 274t-77 280.5t-49 281t-24 273.5h203q4 -137 25 -293.5t55.5 -307.5t80.5 -273h6q12 34 26 75t28 80.5t26 68.5l105 275
q-16 100 -24.5 195t-12.5 180h198q5 -139 26.5 -295.5t57 -307.5t83.5 -275h6q49 112 87 257.5t61 306t24 314.5h203z" />
    <glyph glyph-name="uni0462" unicode="&#x462;" horiz-adv-x="992" 
d="M169 0v1143h-164v165h164v248h220v-248h263v-165h-263v-276h84q148 0 248 -45.5t151 -139.5t51 -239q0 -207 -114.5 -325t-326.5 -118h-313zM389 191h87q111 0 169 62.5t58 184.5q0 82 -24 134.5t-74 78.5t-131 26h-85v-486z" />
    <glyph glyph-name="uni0463" unicode="&#x463;" horiz-adv-x="933" 
d="M391 1335v-226h205v-155h-205v-287h95q190 0 287 -81t97 -246q0 -113 -43 -188.5t-125.5 -113.5t-200.5 -38h-320v954h-166v155h166v226h210zM488 504h-97v-340h96q85 0 128 42.5t43 123.5q0 85 -41 129.5t-129 44.5z" />
    <glyph glyph-name="uni0464" unicode="&#x464;" horiz-adv-x="1406" 
d="M1038 -20q-158 0 -264.5 88t-163 241.5t-66.5 350.5h-183v-660h-220v1462h220v-609h188q12 141 49 257.5t99 200t150 128.5t203 45q83 0 159.5 -21.5t146.5 -65.5l-67 -183q-57 37 -114 57t-121 20q-67 0 -117.5 -34.5t-85 -95t-55.5 -139.5t-29 -169h422v-193h-425
q4 -101 23.5 -189.5t56.5 -155t92 -104t129 -37.5q67 0 128.5 20.5t119.5 54.5v-200q-59 -34 -128 -51.5t-147 -17.5z" />
    <glyph glyph-name="uni0465" unicode="&#x465;" horiz-adv-x="1202" 
d="M897 -20q-131 0 -215.5 57.5t-128.5 170t-54 276.5h-164v-484h-210v1109h210v-462h165q13 148 61 256.5t134.5 167.5t213.5 59q65 0 125 -15.5t115 -47.5l-61 -165q-37 23 -83.5 37.5t-91.5 14.5q-61 0 -104.5 -34t-68.5 -102t-33 -170h291v-164h-291q6 -109 31 -181
t70 -108.5t108 -36.5q55 0 109.5 18t106.5 50v-177q-45 -34 -110 -51.5t-125 -17.5z" />
    <glyph glyph-name="uni0466" unicode="&#x466;" horiz-adv-x="1164" 
d="M723 1462l446 -1462h-233l-181 639h-69v-639h-207v639h-72l-178 -639h-234l444 1462h284zM580 1285q-3 -20 -6.5 -38.5t-7.5 -36.5t-8.5 -34.5t-9.5 -32.5l-91 -322h246l-92 325q-4 16 -8 32.5t-8.5 33.5t-8 35.5t-6.5 37.5z" />
    <glyph glyph-name="uni0467" unicode="&#x467;" horiz-adv-x="979" 
d="M621 1109l357 -1109h-210l-130 450h-55v-450h-186v450h-54l-130 -450h-210l360 1109h258zM497 959h-8q-3 -19 -7 -36.5t-8 -34t-9 -33.5l-68 -236h188l-66 234q-5 20 -9 37t-7.5 34.5t-5.5 34.5z" />
    <glyph glyph-name="uni0468" unicode="&#x468;" horiz-adv-x="1622" 
d="M1182 1462l445 -1462h-232l-181 639h-70v-639h-205v639h-75l-177 -639h-231l199 666h-294v-666h-220v1462h220v-603h356l182 603h283zM1038 1285q-3 -20 -6.5 -38.5t-7.5 -36.5t-8 -34.5t-9 -32.5l-91 -322h245l-92 325q-4 16 -8 32.5t-8 33.5t-8 35.5t-7 37.5z" />
    <glyph glyph-name="uni0469" unicode="&#x469;" horiz-adv-x="1390" 
d="M1032 1109l357 -1109h-210l-131 450h-53v-450h-186v450h-55l-130 -450h-205l157 488h-241v-488h-210v1109h210v-442h301l142 442h254zM906 959h-8q-4 -27 -10 -54.5t-13 -54t-17 -55.5l-50 -176h188l-51 177q-6 19 -14 50t-15 62t-10 51z" />
    <glyph glyph-name="uni046A" unicode="&#x46a;" horiz-adv-x="1227" 
d="M1093 1462v-127l-279 -493q82 -14 135 -59t89 -124.5t65 -200.5l117 -458h-235l-92 414q-20 97 -41.5 152t-52.5 79.5t-82 28.5v-674h-208v674q-52 -3 -81.5 -26.5t-49.5 -78.5t-43 -155l-93 -414h-235l118 458q23 92 46.5 159.5t54.5 113t76 73t109 38.5l-275 493v127
h957zM826 1282h-426l212 -417z" />
    <glyph glyph-name="uni046B" unicode="&#x46b;" horiz-adv-x="1088" 
d="M960 1109v-109l-237 -362q76 -13 124.5 -51.5t79.5 -100.5t54 -147l94 -339h-210l-83 351q-15 54 -32 85t-43.5 44t-68.5 13v-493h-188v491q-43 0 -69 -13.5t-41.5 -44t-29.5 -81.5l-87 -352h-210l91 339q24 86 55 149t80 101.5t124 49.5l-239 361v109h836zM723 953h-362
l180 -290z" />
    <glyph glyph-name="uni046C" unicode="&#x46c;" horiz-adv-x="1694" 
d="M1561 1462v-127l-279 -505q86 -13 139 -60.5t87.5 -128t64.5 -195.5l116 -446h-233l-94 404q-21 95 -42.5 150.5t-52.5 80t-82 28.5v-663h-207v663q-48 -3 -77.5 -24t-51 -75.5t-46.5 -159.5l-93 -404h-228l107 415q20 78 44.5 141t57.5 110h-330v-666h-220v1462h220
v-603h503l-259 476l-1 127h957zM1295 1282h-426l211 -427z" />
    <glyph glyph-name="uni046D" unicode="&#x46d;" horiz-adv-x="1517" 
d="M1390 1109v-109l-239 -371q76 -13 124.5 -50t80 -98t54.5 -146l96 -335h-212l-86 346q-14 53 -30.5 83t-42 42.5t-68.5 12.5v-484h-187v482q-43 0 -68.5 -13.5t-40.5 -43t-30 -78.5l-88 -347h-206l95 344q14 47 29 83t32 61h-268v-488h-210v1109h210v-442h434l-216 333
v109h837zM1151 953h-360l180 -295z" />
    <glyph glyph-name="uni046E" unicode="&#x46e;" horiz-adv-x="924" 
d="M649 1760q23 0 42.5 -3t37.5 -10v-134q-10 6 -22 8.5t-26 2.5q-37 0 -69.5 -43.5t-65.5 -111.5q119 -31 183.5 -121.5t64.5 -222.5q0 -142 -65 -234.5t-191 -122.5v-8q144 -17 216.5 -108.5t72.5 -242.5q0 -100 -30 -177t-84 -130t-126.5 -80.5t-157.5 -30.5
q-57 -2 -95 -14.5t-56.5 -37t-18.5 -62.5q0 -57 35 -84t100 -27q40 0 73 3t62.5 6.5t56.5 3.5q39 0 69.5 -7.5t49.5 -19.5v-182q-18 12 -49 18.5t-73 6.5q-40 0 -74.5 -3t-71 -6t-81.5 -3q-105 0 -175 37t-105 103.5t-35 156.5q0 103 38 170t109.5 100t170.5 35
q122 5 182.5 60t60.5 178q0 124 -70 183t-217 59h-112v192h108q90 1 148 25.5t86 76t28 134.5q0 98 -49 147t-141 49q-67 0 -123.5 -25.5t-98.5 -70.5l-95 160q55 49 113 78t124 43q-16 32 -43.5 78.5t-59 94t-58.5 81.5v22h137q34 -33 69.5 -80t77.5 -106q29 56 62.5 100
t73.5 70t87 26z" />
    <glyph glyph-name="uni046F" unicode="&#x46f;" horiz-adv-x="777" 
d="M564 1360q21 0 41 -3t38 -10v-129q-10 7 -22.5 9t-26.5 2q-31 0 -62 -30t-62 -92q94 -29 143 -98.5t49 -168.5q0 -89 -43 -154.5t-117 -92.5v-9q66 -17 110.5 -55t67 -91.5t22.5 -120.5q0 -99 -37.5 -170.5t-113.5 -111.5t-190 -45q-49 -2 -79 -14t-44 -34.5t-14 -56.5
q0 -50 28 -72.5t83 -22.5q32 0 60.5 3t56 5.5t57.5 2.5q33 0 59.5 -6.5t45.5 -19.5v-183q-15 13 -43.5 20.5t-61.5 7.5q-27 0 -62 -2.5t-70 -5.5t-64 -3q-93 0 -157.5 32t-98.5 94t-34 151t34.5 150.5t99.5 95.5t155 38q62 3 101 22.5t57.5 55t18.5 87.5q0 51 -21 87.5
t-63 55.5t-105 19h-85v163h70q81 0 126 40t45 120q0 68 -36 101.5t-106 33.5q-48 0 -94 -14.5t-91 -43.5l-74 159q35 20 69.5 34.5t70.5 21.5q-18 37 -40.5 74t-47.5 73t-51 70v23h137q32 -34 69 -80.5t78 -105.5q30 57 63 100.5t73 68.5t88 25z" />
    <glyph glyph-name="uni0470" unicode="&#x470;" horiz-adv-x="1377" 
d="M1258 1462v-478q0 -138 -25.5 -242.5t-80.5 -175t-143 -105.5t-213 -35v-426h-212v426q-125 0 -213 34t-142.5 102t-80 170t-25.5 239v491h219v-496q0 -108 19.5 -186t71.5 -119.5t151 -42.5v844h212v-844q88 1 141 35.5t77 110.5t24 200v498h220z" />
    <glyph glyph-name="uni0471" unicode="&#x471;" horiz-adv-x="1241" 
d="M727 1555v-1387q75 9 121 55t66.5 136t20.5 229q0 127 -16 256.5t-50 264.5h206q38 -151 55 -275.5t17 -250.5q0 -188 -47 -319.5t-140.5 -202t-232.5 -78.5v-474h-205v474q-133 4 -223.5 62.5t-136 174.5t-45.5 294v595h210v-584q0 -114 19.5 -191t62.5 -118t113 -48
v1387h205z" />
    <glyph glyph-name="uni0472" unicode="&#x472;" horiz-adv-x="1187" 
d="M1091 733q0 -165 -28.5 -303t-89 -239t-155 -156t-224.5 -55q-131 0 -225.5 56t-155 157.5t-89 239.5t-28.5 302q0 248 56.5 414.5t168 250.5t274.5 84q173 0 283 -95t161.5 -264.5t51.5 -391.5zM595 174q84 0 142.5 54t91 160.5t37.5 266.5h-544q4 -156 37 -263.5
t92 -162.5t144 -55zM596 1292q-83 0 -141.5 -50.5t-91.5 -152t-40 -253.5h542q-11 227 -78 341.5t-191 114.5z" />
    <glyph glyph-name="uni0473" unicode="&#x473;" horiz-adv-x="978" 
d="M898 557q0 -184 -48.5 -313t-140 -196.5t-223.5 -67.5q-126 0 -217 68.5t-139.5 197.5t-48.5 311q0 279 106.5 426t303.5 147q134 0 224.5 -75t136.5 -204.5t46 -293.5zM488 159q62 0 103.5 37t64.5 110t28 183h-392q4 -99 25.5 -173t63.5 -115.5t107 -41.5zM488 949
q-90 0 -137.5 -77t-58.5 -230h393q-5 90 -27 159.5t-63.5 108.5t-106.5 39z" />
    <glyph glyph-name="uni0474" unicode="&#x474;" horiz-adv-x="1047" 
d="M1003 1284q-32 0 -54 -22t-39 -66t-34 -112l-265 -1084h-255l-356 1462h230l197 -879q14 -54 25 -114t19.5 -119t13.5 -111q5 34 11.5 77t14 87t14 82.5t12.5 63.5l133 588q29 126 64.5 200t85.5 106t124 33q36 0 65 -6t53 -18v-182q-15 6 -30 10t-29 4z" />
    <glyph glyph-name="uni0475" unicode="&#x475;" horiz-adv-x="887" 
d="M782 1126q40 0 67.5 -6t46.5 -16v-169q-15 7 -29.5 10.5t-28.5 3.5q-27 -1 -44.5 -16t-31.5 -51t-31 -102l-205 -780h-230l-289 1109h217l139 -627q14 -60 24.5 -121.5t19.5 -128.5h8q5 54 16 117t28 133l71 314q31 129 63.5 200.5t77.5 100.5t111 29z" />
    <glyph glyph-name="uni0476" unicode="&#x476;" horiz-adv-x="1047" 
d="M1003 1284q-32 0 -54 -22t-39 -66t-34 -112l-265 -1084h-255l-356 1462h230l197 -879q14 -54 25 -114t19.5 -119t13.5 -111q5 34 11.5 77t14 87t14 82.5t12.5 63.5l133 588q29 126 64.5 200t85.5 106t124 33q36 0 65 -6t53 -18v-182q-15 6 -30 10t-29 4zM596 1907
q15 -34 40.5 -86t57 -109t60.5 -108v-25h-100q-35 29 -74.5 69t-76.5 83.5t-66 85t-44 71.5v19h203zM284 1907q20 -45 44.5 -95t52.5 -102.5t58 -105.5v-25h-106q-30 28 -68 67.5t-75 84t-67 86t-45 71.5v19h206z" />
    <glyph glyph-name="uni0477" unicode="&#x477;" horiz-adv-x="887" 
d="M782 1126q40 0 67.5 -6t46.5 -16v-169q-15 7 -29.5 10.5t-28.5 3.5q-27 -1 -44.5 -16t-31.5 -51t-31 -102l-205 -780h-230l-289 1109h217l139 -627q14 -60 24.5 -121.5t19.5 -128.5h8q5 54 16 117t28 133l71 314q31 129 63.5 200.5t77.5 100.5t111 29zM527 1569
q15 -34 40.5 -86t57 -109t60.5 -108v-25h-100q-35 29 -74.5 69t-76.5 83.5t-66 85t-44 71.5v19h203zM215 1569q20 -45 44.5 -95t52.5 -102.5t58 -105.5v-25h-106q-30 28 -68 67.5t-75 84t-67 86t-45 71.5v19h206z" />
    <glyph glyph-name="uni0478" unicode="&#x478;" horiz-adv-x="1994" 
d="M1071 733q0 -165 -28.5 -303t-87 -239t-151 -156t-219.5 -55q-129 0 -222 56t-152 157.5t-87 239.5t-28 302q0 248 55 414.5t164 250.5t270 84q170 0 277.5 -95t158 -264.5t50.5 -391.5zM324 733q0 -183 29.5 -307t87.5 -187t143 -63q86 0 143 61.5t86 185t29 310.5
q0 186 -28.5 310t-85.5 185.5t-143 61.5q-87 0 -145 -63t-87 -186.5t-29 -307.5zM1177 1109h218l143 -592q9 -39 17 -78t14.5 -76t10.5 -73h8q7 50 18 105.5t27 120.5l137 593h217l-330 -1251q-34 -124 -78.5 -201t-104.5 -113t-143 -36q-28 0 -56 5t-56 12v186
q20 -6 40.5 -10t38.5 -4q40 0 66.5 17.5t47 61.5t42.5 124l27 110z" />
    <glyph glyph-name="uni0479" unicode="&#x479;" horiz-adv-x="1777" 
d="M871 557q0 -124 -23 -229t-70.5 -183t-123 -121.5t-180.5 -43.5q-100 0 -174 43t-122.5 120.5t-72.5 183t-24 230.5q0 175 41.5 303.5t129.5 199t225 70.5q123 0 211.5 -66t135.5 -193.5t47 -313.5zM294 555q0 -130 19.5 -218t60 -132.5t103.5 -44.5t102.5 44t58 132
t18.5 221q0 130 -18.5 217.5t-58 131t-103.5 43.5q-96 0 -139 -97.5t-43 -296.5zM960 1109h219l143 -592q9 -39 17.5 -78t15 -76t10.5 -73h8q6 50 17 105.5t27 120.5l137 593h217l-330 -1251q-33 -124 -77.5 -201t-105 -113t-142.5 -36q-29 0 -56.5 5t-56.5 12v186
q20 -6 40.5 -10t39.5 -4q39 0 65.5 17.5t47 61.5t41.5 124l28 110z" />
    <glyph glyph-name="uni047A" unicode="&#x47a;" horiz-adv-x="1233" 
d="M619 -120q-42 0 -74 26.5t-43 86.5q-100 19 -176 77.5t-127 153t-77 223t-26 288.5q0 219 45.5 374.5t136 246.5t223.5 116q11 59 42.5 84.5t75.5 25.5q41 0 72 -25.5t42 -84.5q133 -25 223 -118.5t136 -249.5t46 -371q0 -159 -26 -287t-77.5 -222.5t-127.5 -153.5
t-176 -78q-11 -60 -41 -86t-71 -26zM509 205q15 52 43.5 75t65.5 23q36 0 65.5 -24.5t42.5 -77.5q62 28 104 98t63.5 179t21.5 255q0 218 -47.5 353.5t-141.5 176.5q-11 -54 -40.5 -78.5t-67.5 -24.5q-37 0 -68 24t-43 76q-62 -29 -103.5 -100t-62.5 -178.5t-21 -248.5
t21 -249.5t63 -179.5t105 -99z" />
    <glyph glyph-name="uni047B" unicode="&#x47b;" horiz-adv-x="1024" 
d="M946 557q0 -160 -39 -279t-113 -191.5t-180 -94.5q-12 -54 -36.5 -79t-61.5 -25q-38 0 -66 25t-38 78q-105 22 -179.5 96t-113 193.5t-38.5 276.5q0 242 85 386t246 175q10 54 38 76.5t66 22.5q35 0 61.5 -23.5t37.5 -77.5q107 -22 180.5 -96.5t112 -192t38.5 -270.5z
M740 557q0 100 -14 171.5t-42 117.5t-72 69q-9 -49 -35 -73t-61 -24q-37 0 -63.5 23t-37.5 72q-67 -35 -97.5 -125t-31.5 -233t32 -235.5t97 -125.5q8 47 36.5 69.5t64.5 22.5q34 0 59.5 -23t37.5 -70q65 37 96 127t31 237z" />
    </font>
</defs>
</svg>
